<?xml version="1.0" encoding="UTF-8"?>
<svg xmlns="http://www.w3.org/2000/svg" xmlns:xlink="http://www.w3.org/1999/xlink" version="1.2" >
<font id="NanumSquare Light">
<font-face  font-family="NanumSquare" units-per-em="1000" ascent="850" descent="-255" font-style="normal" font-weight="300" font-stretch="normal" cap-height="695" x-height="507" underline-position="-75" underline-thickness="50" />
<missing-glyph  horiz-adv-x="910" d="M855 -143 L55 -143 L55 757 L855 757 L855 -143 Z M455 278 L120 -107 L790 -107 L455 278 Z M95 -76 L429 308 L95 692 L95 -76 Z M454 337 L788 721 L121 721 L454 337 Z M815 693 L481 307 L815 -77 L815 693 Z " />
<glyph glyph-name="&amp;#x0;" horiz-adv-x="250" d="" />
<glyph glyph-name="&amp;#x1;" unicode="&#x1;" horiz-adv-x="250" d="" />
<glyph glyph-name="&amp;#x2;" unicode="&#x2;" horiz-adv-x="250" d="" />
<glyph glyph-name="&amp;#x3;" unicode="&#x3;" horiz-adv-x="250" d="" />
<glyph glyph-name="&amp;#x4;" unicode="&#x4;" horiz-adv-x="250" d="" />
<glyph glyph-name="&amp;#x5;" unicode="&#x5;" horiz-adv-x="250" d="" />
<glyph glyph-name="&amp;#x6;" unicode="&#x6;" horiz-adv-x="250" d="" />
<glyph glyph-name="&amp;#x7;" unicode="&#x7;" horiz-adv-x="250" d="" />
<glyph glyph-name="&amp;#x8;" unicode="&#x8;" horiz-adv-x="250" d="" />
<glyph glyph-name="&amp;#x9;" unicode="&#x9;" horiz-adv-x="250" d="" />
<glyph glyph-name="&amp;#xa;" unicode="&#xa;" horiz-adv-x="250" d="" />
<glyph glyph-name="&amp;#xb;" unicode="&#xb;" horiz-adv-x="250" d="" />
<glyph glyph-name="&amp;#xc;" unicode="&#xc;" horiz-adv-x="250" d="" />
<glyph glyph-name="&amp;#xd;" unicode="&#xd;" horiz-adv-x="250" d="" />
<glyph glyph-name="&amp;#xe;" unicode="&#xe;" horiz-adv-x="250" d="" />
<glyph glyph-name="&amp;#xf;" unicode="&#xf;" horiz-adv-x="250" d="" />
<glyph glyph-name="&amp;#x10;" unicode="&#x10;" horiz-adv-x="250" d="" />
<glyph glyph-name="&amp;#x11;" unicode="&#x11;" horiz-adv-x="250" d="" />
<glyph glyph-name="&amp;#x12;" unicode="&#x12;" horiz-adv-x="250" d="" />
<glyph glyph-name="&amp;#x13;" unicode="&#x13;" horiz-adv-x="250" d="" />
<glyph glyph-name="&amp;#x14;" unicode="&#x14;" horiz-adv-x="250" d="" />
<glyph glyph-name="&amp;#x15;" unicode="&#x15;" horiz-adv-x="250" d="" />
<glyph glyph-name="&amp;#x16;" unicode="&#x16;" horiz-adv-x="250" d="" />
<glyph glyph-name="&amp;#x17;" unicode="&#x17;" horiz-adv-x="250" d="" />
<glyph glyph-name="&amp;#x18;" unicode="&#x18;" horiz-adv-x="250" d="" />
<glyph glyph-name="&amp;#x19;" unicode="&#x19;" horiz-adv-x="250" d="" />
<glyph glyph-name="&amp;#x1a;" unicode="&#x1a;" horiz-adv-x="250" d="" />
<glyph glyph-name="&amp;#x1b;" unicode="&#x1b;" horiz-adv-x="250" d="" />
<glyph glyph-name="&amp;#x1c;" unicode="&#x1c;" horiz-adv-x="250" d="" />
<glyph glyph-name="&amp;#x1d;" unicode="&#x1d;" horiz-adv-x="250" d="" />
<glyph glyph-name="&amp;#x1e;" unicode="&#x1e;" horiz-adv-x="250" d="" />
<glyph glyph-name="&amp;#x1f;" unicode="&#x1f;" horiz-adv-x="250" d="" />
<glyph glyph-name="&amp;#x20;" unicode="&#x20;" horiz-adv-x="250" d="" />
<glyph glyph-name="&amp;#xa0;" unicode="&#xa0;" horiz-adv-x="250" d="" />
<glyph glyph-name="exclam" unicode="&#x21;" horiz-adv-x="260" d="M95 34 L165 34 L165 -50 L95 -50 L95 34 Z M107 145 L104 709 L156 709 L153 145 L107 145 Z " />
<glyph glyph-name="quotedbl" unicode="&#x22;" horiz-adv-x="356" d="M98 488 L90 726 L142 726 L134 488 L98 488 Z M222 488 L214 726 L266 726 L258 488 L222 488 Z " />
<glyph glyph-name="numbersign" unicode="&#x23;" horiz-adv-x="554" d="M493 248 L493 210 L376 210 L342 -26 L304 -26 L338 210 L181 210 L148 -26 L109 -26 L143 210 L30 210 L30 248 L147 248 L172 426 L61 426 L61 464 L177 464 L210 695 L248 695 L215 464 L371 464 L404 695 L443 695 L409 464 L524 464 L524 426 L405 426 L380 248 L493 248 Z M367 426 L210 426 L185 248 L342 248 L367 426 Z " />
<glyph glyph-name="dollar" unicode="&#x24;" horiz-adv-x="580" d="M275 -15 Q212 -13 153.5 6 Q95 25 47 61 L71 95 Q128 52 181 38.5 Q234 25 275 24 L275 325 L265 328 Q196 344 156 362.5 Q116 381 95.5 402 Q75 423 69.5 447 Q64 471 64 497 L64 520 Q64 563 83 593 Q102 623 132.5 642.5 Q163 662 200.5 671.5 Q238 681 275 683 L275 751 L311 751 L311 683 Q373 680 421 663.5 Q469 647 501 624 L478 592 Q446 612 405 627 Q364 642 311 644 L311 359 Q375 342 417 326 Q459 310 483.5 290 Q508 270 518 244.5 Q528 219 528 183 L528 157 Q528 124 513.5 94 Q499 64 471 41 Q443 18 403 3.5 Q363 -11 311 -14 L311 -93 L275 -93 L275 -15 Z M487 182 Q487 206 480.5 225 Q474 244 455 259.5 Q436 275 401.5 288.5 Q367 302 311 317 L311 25 Q352 28 384.5 39 Q417 50 440 68 Q463 86 475 109 Q487 132 487 158 L487 182 Z M105 498 Q105 475 111 457 Q117 439 135 424 Q153 409 186.5 395.5 Q220 382 275 368 L275 644 Q247 642 217 635 Q187 628 162 613 Q137 598 121 575 Q105 552 105 519 L105 498 Z " />
<glyph glyph-name="percent" unicode="&#x25;" horiz-adv-x="842" d="M182 -25 L619 695 L662 695 L226 -25 L182 -25 Z M220 700 Q291 700 330.5 658 Q370 616 370 537 L370 489 Q370 410 330.5 368 Q291 326 220 326 Q149 326 109.5 368 Q70 410 70 489 L70 537 Q70 616 109.5 658 Q149 700 220 700 Z M220 363 Q242 363 262 369 Q282 375 297 390 Q312 405 321 429.5 Q330 454 330 491 L330 535 Q330 572 321 596.5 Q312 621 297 636 Q282 651 262 657 Q242 663 220 663 Q198 663 178 657 Q158 651 143 636 Q128 621 119 596.5 Q110 572 110 535 L110 491 Q110 454 119 429.5 Q128 405 143 390 Q158 375 178 369 Q198 363 220 363 Z M622 340 Q693 340 732.5 298 Q772 256 772 177 L772 129 Q772 50 732.5 8 Q693 -34 622 -34 Q551 -34 511.5 8 Q472 50 472 129 L472 177 Q472 256 511.5 298 Q551 340 622 340 Z M622 3 Q644 3 664 9 Q684 15 699 30 Q714 45 723 69.5 Q732 94 732 131 L732 175 Q732 212 723 236.5 Q714 261 699 276 Q684 291 664 297 Q644 303 622 303 Q600 303 580 297 Q560 291 545 276 Q530 261 521 236.5 Q512 212 512 175 L512 131 Q512 94 521 69.5 Q530 45 545 30 Q560 15 580 9 Q600 3 622 3 Z " />
<glyph glyph-name="ampersand" unicode="&#x26;" horiz-adv-x="651" d="M495 66 Q453 18 394.5 -9.5 Q336 -37 263 -37 L257 -37 Q212 -37 171 -24.5 Q130 -12 99.5 10.5 Q69 33 51 64 Q33 95 33 131 L33 156 Q33 192 43 219 Q53 246 76.5 270 Q100 294 137.5 318.5 Q175 343 231 373 L211 397 Q194 417 178 436 Q162 455 150 474.5 Q138 494 130.5 514 Q123 534 123 557 L123 572 Q123 595 133 618.5 Q143 642 163 661.5 Q183 681 214.5 693.5 Q246 706 290 706 Q331 706 362 693.5 Q393 681 414 662 Q435 643 445.5 619.5 Q456 596 456 574 L456 555 Q456 530 448 507 Q440 484 421.5 461 Q403 438 371 414 Q339 390 291 363 L493 127 Q522 172 536.5 227 Q551 282 552 341 L591 341 Q589 269 571 207 Q553 145 519 96 L624 -26 L575 -26 L495 66 Z M261 0 Q329 0 381 25.5 Q433 51 470 96 L256 344 Q215 321 181.5 301.5 Q148 282 124 260.5 Q100 239 87 213 Q74 187 74 152 L74 134 Q74 107 88 82.5 Q102 58 127 40 Q152 22 186 11 Q220 0 261 0 Z M163 559 Q163 538 171 519 Q179 500 193 480 Q207 460 225.5 438.5 Q244 417 266 392 Q309 416 338 436.5 Q367 457 384.5 477 Q402 497 409.5 516.5 Q417 536 417 559 L417 570 Q417 613 383 641 Q349 669 290 669 Q233 669 198 642 Q163 615 163 570 L163 559 Z " />
<glyph glyph-name="quotesingle" unicode="&#x27;" horiz-adv-x="232" d="M98 488 L90 726 L142 726 L134 488 L98 488 Z " />
<glyph glyph-name="parenleft" unicode="&#x28;" horiz-adv-x="289" d="M113 274 Q113 160 144 48 Q175 -64 252 -170 L210 -170 Q135 -81 99.5 35 Q64 151 64 279 L64 319 Q64 447 99.5 562 Q135 677 210 766 L252 766 Q178 666 145.5 555.5 Q113 445 113 324 L113 274 Z " />
<glyph glyph-name="parenright" unicode="&#x29;" horiz-adv-x="289" d="M176 324 Q176 445 143.5 555.5 Q111 666 37 766 L79 766 Q154 677 189.5 562 Q225 447 225 319 L225 279 Q225 151 189.5 35 Q154 -81 79 -170 L37 -170 Q114 -64 145 48 Q176 160 176 274 L176 324 Z " />
<glyph glyph-name="asterisk" unicode="&#x2a;" horiz-adv-x="445" d="M66 418 L45 455 L195 534 L45 612 L66 649 L207 561 L199 729 L245 729 L238 561 L380 649 L400 612 L250 534 L400 455 L380 418 L238 506 L245 339 L199 339 L207 506 L66 418 Z " />
<glyph glyph-name="plus" unicode="&#x2b;" horiz-adv-x="600" d="M322 565 L322 341 L540 341 L540 299 L322 299 L322 61 L278 61 L278 299 L60 299 L60 341 L278 341 L278 565 L322 565 Z " />
<glyph glyph-name="comma" unicode="&#x2c;" horiz-adv-x="196" d="M75 48 L142 48 L83 -175 L39 -175 L75 48 Z " />
<glyph glyph-name="hyphen" unicode="&#x2d;" horiz-adv-x="404" d="M53 356 L351 356 L351 312 L53 312 L53 356 Z " />
<glyph glyph-name="period" unicode="&#x2e;" horiz-adv-x="196" d="M58 42 L138 42 L138 -44 L58 -44 L58 42 Z " />
<glyph glyph-name="slash" unicode="&#x2f;" horiz-adv-x="344" d="M344 757 L44 -122 L0 -122 L300 757 L344 757 Z " />
<glyph glyph-name="zero" unicode="0" horiz-adv-x="590" d="M530 279 Q530 126 475 44.5 Q420 -37 293 -37 Q230 -37 185.5 -16 Q141 5 113.5 45.5 Q86 86 73 144.5 Q60 203 60 279 L60 391 Q60 542 114.5 624 Q169 706 293 706 Q356 706 400.5 685 Q445 664 474 624 Q503 584 516.5 525.5 Q530 467 530 391 L530 279 Z M487 392 Q487 525 443 595.5 Q399 666 293 666 Q241 666 205 648 Q169 630 146.5 595 Q124 560 113.5 509 Q103 458 103 392 L103 278 Q103 211 113.5 160 Q124 109 146.5 74 Q169 39 205 21 Q241 3 293 3 Q346 3 383 21 Q420 39 443 73.5 Q466 108 476.5 159.5 Q487 211 487 278 L487 392 Z " />
<glyph glyph-name="one" unicode="1" horiz-adv-x="590" d="M324 -26 L324 635 L122 513 L102 548 L342 695 L368 695 L368 -26 L324 -26 Z " />
<glyph glyph-name="two" unicode="2" horiz-adv-x="590" d="M389 367 Q413 395 427 416.5 Q441 438 448 455.5 Q455 473 457 488.5 Q459 504 459 522 L459 530 Q459 593 419 629.5 Q379 666 301 666 Q244 666 199.5 638.5 Q155 611 120 548 L84 569 Q98 595 117.5 619.5 Q137 644 163 663.5 Q189 683 223 694.5 Q257 706 299 706 Q344 706 381.5 694 Q419 682 446 659.5 Q473 637 487.5 604.5 Q502 572 502 532 L502 522 Q502 497 498 476 Q494 455 484 434 Q474 413 458.5 390.5 Q443 368 420 341 L145 16 L529 16 L529 -26 L85 -26 L85 11 L389 367 Z " />
<glyph glyph-name="three" unicode="3" horiz-adv-x="590" d="M95 594 Q107 614 125.5 634 Q144 654 169.5 670 Q195 686 227.5 696 Q260 706 299 706 Q346 706 384.5 693 Q423 680 450 656.5 Q477 633 492 599.5 Q507 566 507 526 L507 516 Q507 495 501 471.5 Q495 448 480 425.5 Q465 403 440 384 Q415 365 376 352 Q452 339 493.5 294 Q535 249 535 185 L535 170 Q535 132 523 95 Q511 58 483 29 Q455 0 409.5 -18.5 Q364 -37 298 -37 Q235 -37 176.5 -17.5 Q118 2 67 43 L92 80 Q144 38 197 21 Q250 4 298 4 Q353 4 390 20 Q427 36 449.5 60.5 Q472 85 481.5 114 Q491 143 491 169 L491 182 Q491 229 471.5 258 Q452 287 423.5 303 Q395 319 363 324.5 Q331 330 306 330 L226 330 L226 370 L304 370 Q328 370 356 378 Q384 386 408 403.5 Q432 421 447.5 449.5 Q463 478 463 519 L463 527 Q463 588 420.5 626.5 Q378 665 300 665 Q255 665 210 645 Q165 625 130 570 L95 594 Z " />
<glyph glyph-name="four" unicode="4" horiz-adv-x="590" d="M459 422 L459 184 L571 184 L571 141 L459 141 L459 -26 L415 -26 L415 141 L47 141 L47 184 L408 695 L460 695 L98 184 L415 184 L415 422 L459 422 Z " />
<glyph glyph-name="five" unicode="5" horiz-adv-x="590" d="M493 191 Q493 285 446 328 Q399 371 313 371 Q258 371 221.5 351 Q185 331 159 305 L109 305 L132 695 L492 695 L492 654 L172 654 L155 349 Q181 375 224 393.5 Q267 412 318 412 Q366 412 406 398 Q446 384 475.5 357 Q505 330 521 289 Q537 248 537 194 L537 175 Q537 139 525 101 Q513 63 485 32.5 Q457 2 411.5 -17.5 Q366 -37 300 -37 Q237 -37 178.5 -17.5 Q120 2 69 43 L94 80 Q146 38 199 21 Q252 4 300 4 Q355 4 392 21 Q429 38 451.5 63.5 Q474 89 483.5 118.5 Q493 148 493 174 L493 191 Z " />
<glyph glyph-name="six" unicode="6" horiz-adv-x="590" d="M491 622 Q456 644 419 655 Q382 666 335 666 Q274 666 233 640 Q192 614 166.5 567.5 Q141 521 128.5 455 Q116 389 112 310 Q124 338 144.5 360 Q165 382 191 397.5 Q217 413 248 421 Q279 429 312 429 Q362 429 403 414 Q444 399 473.5 370.5 Q503 342 519 301.5 Q535 261 535 210 L535 188 Q535 133 517 91 Q499 49 468 20.5 Q437 -8 395.5 -22.5 Q354 -37 307 -37 Q261 -37 218 -20.5 Q175 -4 142 32 Q109 68 89.5 124.5 Q70 181 70 261 L70 279 Q70 393 87.5 473.5 Q105 554 138.5 606 Q172 658 220.5 682 Q269 706 332 706 Q389 706 434.5 691 Q480 676 510 657 L491 622 Z M120 208 Q120 162 134.5 124 Q149 86 174 59 Q199 32 233.5 17.5 Q268 3 307 3 Q346 3 379.5 15 Q413 27 437.5 50.5 Q462 74 476.5 108.5 Q491 143 491 189 L491 202 Q491 293 444.5 342 Q398 391 309 391 Q267 391 232 377 Q197 363 172 339 Q147 315 133.5 282.5 Q120 250 120 214 L120 208 Z " />
<glyph glyph-name="seven" unicode="7" horiz-adv-x="590" d="M235 -26 L186 -26 L490 654 L67 654 L67 695 L539 695 L539 664 L235 -26 Z " />
<glyph glyph-name="eight" unicode="8" horiz-adv-x="590" d="M129 511 Q129 479 140.5 451.5 Q152 424 173.5 404 Q195 384 226 372.5 Q257 361 296 361 Q335 361 365.5 372.5 Q396 384 417.5 404 Q439 424 450 451.5 Q461 479 461 511 L461 524 Q461 554 450 580 Q439 606 417.5 625 Q396 644 365 655 Q334 666 295 666 Q213 666 171 625 Q129 584 129 524 L129 511 Z M108 152 Q108 122 120.5 95 Q133 68 156.5 47.5 Q180 27 215 15 Q250 3 295 3 Q341 3 376 15 Q411 27 434.5 47.5 Q458 68 470 95 Q482 122 482 152 L482 165 Q482 201 468.5 230.5 Q455 260 430 280.5 Q405 301 371 312.5 Q337 324 295 324 Q254 324 220 313 Q186 302 161 281.5 Q136 261 122 231.5 Q108 202 108 165 L108 152 Z M66 170 Q66 230 103 277 Q140 324 210 342 Q158 365 123.5 406 Q89 447 89 512 L89 530 Q89 569 104.5 601 Q120 633 147.5 656.5 Q175 680 213 693 Q251 706 295 706 Q339 706 377 693 Q415 680 442.5 656.5 Q470 633 485.5 601 Q501 569 501 530 L501 512 Q501 447 466 405 Q431 363 378 342 Q450 323 487 276.5 Q524 230 524 170 L524 153 Q524 110 507 75 Q490 40 459.5 15 Q429 -10 387 -23.5 Q345 -37 295 -37 Q245 -37 203 -23.5 Q161 -10 130.5 15 Q100 40 83 75 Q66 110 66 153 L66 170 Z " />
<glyph glyph-name="nine" unicode="9" horiz-adv-x="590" d="M105 47 Q140 25 177 14 Q214 3 261 3 Q322 3 363.5 25 Q405 47 431 91 Q457 135 469.5 201 Q482 267 484 356 Q472 328 451.5 306 Q431 284 405 268.5 Q379 253 348 245 Q317 237 284 237 Q234 237 192.5 252 Q151 267 122 295.5 Q93 324 77 364.5 Q61 405 61 456 L61 481 Q61 536 79 578 Q97 620 128 648.5 Q159 677 200.5 691.5 Q242 706 289 706 Q337 706 380 689.5 Q423 673 455.5 637.5 Q488 602 507 546 Q526 490 526 410 L526 385 Q526 263 508 182 Q490 101 456 52 Q422 3 373.5 -17 Q325 -37 264 -37 Q207 -37 161.5 -22 Q116 -7 86 12 L105 47 Z M476 461 Q476 508 462 546 Q448 584 423.5 610.5 Q399 637 364.5 651.5 Q330 666 289 666 Q250 666 216.5 654 Q183 642 158.5 618.5 Q134 595 119.5 560.5 Q105 526 105 480 L105 464 Q105 373 151.5 324 Q198 275 287 275 Q329 275 364 289 Q399 303 424 327 Q449 351 462.5 383.5 Q476 416 476 452 L476 461 Z " />
<glyph glyph-name="colon" unicode="&#x3a;" horiz-adv-x="256" d="M86 122 L170 122 L170 32 L86 32 L86 122 Z M86 560 L170 560 L170 470 L86 470 L86 560 Z " />
<glyph glyph-name="semicolon" unicode="&#x3b;" horiz-adv-x="256" d="M86 560 L170 560 L170 470 L86 470 L86 560 Z M98 128 L165 128 L106 -95 L62 -95 L98 128 Z " />
<glyph glyph-name="less" unicode="&#x3c;" horiz-adv-x="590" d="M109 321 L533 97 L533 50 L65 302 L65 341 L533 593 L533 546 L109 323 L109 321 Z " />
<glyph glyph-name="equal" unicode="&#x3d;" horiz-adv-x="590" d="M74 448 L516 448 L516 403 L74 403 L74 448 Z M74 237 L516 237 L516 192 L74 192 L74 237 Z " />
<glyph glyph-name="greater" unicode="&#x3e;" horiz-adv-x="590" d="M481 323 L57 546 L57 593 L525 341 L525 302 L57 50 L57 97 L481 321 L481 323 Z " />
<glyph glyph-name="question" unicode="&#x3f;" horiz-adv-x="498" d="M203 141 L203 189 Q203 224 218 252.5 Q233 281 255 305.5 Q277 330 303 352.5 Q329 375 351 399 Q373 423 388 449 Q403 475 403 508 L403 527 Q403 562 390 587.5 Q377 613 355.5 630 Q334 647 305.5 655.5 Q277 664 246 664 Q192 664 150.5 644 Q109 624 72 585 L43 614 Q58 630 78 646.5 Q98 663 123.5 676 Q149 689 179 697.5 Q209 706 244 706 Q338 706 392.5 658 Q447 610 447 528 L447 508 Q447 470 432 440 Q417 410 395 384.5 Q373 359 347 337 Q321 315 299 292 Q277 269 262 243.5 Q247 218 247 186 L247 141 L203 141 Z M190 34 L260 34 L260 -50 L190 -50 L190 34 Z " />
<glyph glyph-name="at" unicode="&#x40;" horiz-adv-x="973" d="M748 48 Q708 48 673.5 69 Q639 90 625 135 L624 135 Q613 111 594 94.5 Q575 78 553 68.5 Q531 59 508.5 54.5 Q486 50 468 50 Q383 50 337.5 100.5 Q292 151 292 242 L292 319 Q292 411 342 460.5 Q392 510 471 510 Q516 510 556.5 493 Q597 476 616 446 L616 502 L661 502 L661 172 Q661 151 668.5 135.5 Q676 120 688.5 110 Q701 100 717 95 Q733 90 749 90 Q774 90 797 100 Q820 110 838 134 Q856 158 866.5 197 Q877 236 877 294 L877 308 Q877 394 852.5 464.5 Q828 535 778.5 585.5 Q729 636 654 664 Q579 692 477 692 Q391 692 320.5 664 Q250 636 200 584.5 Q150 533 122.5 459.5 Q95 386 95 296 L95 279 Q95 186 121 110.5 Q147 35 197.5 -19 Q248 -73 323 -102.5 Q398 -132 496 -132 Q575 -132 651 -115.5 Q727 -99 790 -65 L807 -103 Q744 -137 666.5 -155 Q589 -173 499 -173 Q397 -173 314 -142 Q231 -111 173 -53 Q115 5 83.5 89 Q52 173 52 278 L52 297 Q52 391 81 471 Q110 551 165 609.5 Q220 668 299 700.5 Q378 733 477 733 Q586 733 669 702 Q752 671 807.5 615 Q863 559 891.5 481.5 Q920 404 920 311 L920 297 Q920 256 912.5 212.5 Q905 169 885.5 132 Q866 95 833 71.5 Q800 48 748 48 Z M336 247 Q336 203 346 173 Q356 143 374.5 125 Q393 107 418.5 99 Q444 91 475 91 Q543 91 580 132 Q617 173 617 234 L617 360 Q617 380 606.5 399.5 Q596 419 577 434.5 Q558 450 532 459.5 Q506 469 475 469 Q408 469 372 428 Q336 387 336 314 L336 247 Z " />
<glyph glyph-name="A" unicode="A" horiz-adv-x="625" d="M476 207 L150 207 L62 -26 L14 -26 L292 695 L336 695 L611 -26 L562 -26 L476 207 Z M165 246 L461 246 L375 479 Q359 523 343 564.5 Q327 606 314 648 Q302 606 286.5 564.5 Q271 523 254 479 L165 246 Z " />
<glyph glyph-name="B" unicode="B" horiz-adv-x="606" d="M88 695 L311 695 Q425 695 478 652 Q531 609 531 520 L531 497 Q531 473 524.5 450.5 Q518 428 504 409 Q490 390 467.5 375.5 Q445 361 413 353 Q485 343 524.5 304 Q564 265 564 190 L564 163 Q564 74 512.5 24 Q461 -26 344 -26 L88 -26 L88 695 Z M131 14 L348 14 Q519 14 519 163 L519 187 Q519 257 474 294.5 Q429 332 321 332 L131 332 L131 14 Z M131 655 L131 371 L320 371 Q395 371 441 401.5 Q487 432 487 500 L487 520 Q487 584 448 619.5 Q409 655 315 655 L131 655 Z " />
<glyph glyph-name="C" unicode="C" horiz-adv-x="611" d="M571 45 Q560 35 540.5 21 Q521 7 492.5 -6 Q464 -19 426.5 -28 Q389 -37 343 -37 Q267 -37 213.5 -12.5 Q160 12 126 57 Q92 102 76 165.5 Q60 229 60 306 L60 383 Q60 457 77 517 Q94 577 128 619 Q162 661 213 683.5 Q264 706 331 706 Q401 706 457 687 Q513 668 553 639 L529 605 Q485 635 440 649.5 Q395 664 331 664 Q277 664 234.5 645 Q192 626 163.5 591 Q135 556 120 506 Q105 456 105 395 L105 295 Q105 152 166 78.5 Q227 5 345 5 Q381 5 411.5 12 Q442 19 467.5 30 Q493 41 512.5 54 Q532 67 545 78 L571 45 Z " />
<glyph glyph-name="D" unicode="D" horiz-adv-x="648" d="M301 695 Q441 695 514.5 615.5 Q588 536 588 386 L588 283 Q588 208 567.5 150.5 Q547 93 509 54 Q471 15 418 -5.5 Q365 -26 301 -26 L88 -26 L88 695 L301 695 Z M132 16 L306 16 Q355 16 398 32.5 Q441 49 473 82.5 Q505 116 524 166 Q543 216 543 283 L543 381 Q543 518 481 585.5 Q419 653 305 653 L132 653 L132 16 Z " />
<glyph glyph-name="E" unicode="E" horiz-adv-x="585" d="M509 695 L509 654 L132 654 L132 364 L488 364 L488 324 L132 324 L132 15 L516 15 L516 -26 L88 -26 L88 695 L509 695 Z " />
<glyph glyph-name="F" unicode="F" horiz-adv-x="554" d="M500 695 L500 654 L132 654 L132 345 L479 345 L479 305 L132 305 L132 -26 L88 -26 L88 695 L500 695 Z " />
<glyph glyph-name="G" unicode="G" horiz-adv-x="636" d="M533 307 L353 307 L353 349 L576 349 L576 25 Q565 15 544.5 4 Q524 -7 495 -16 Q466 -25 429 -31 Q392 -37 348 -37 Q272 -37 217.5 -12.5 Q163 12 128 57 Q93 102 76.5 165.5 Q60 229 60 306 L60 383 Q60 457 78 517 Q96 577 131 619 Q166 661 217.5 683.5 Q269 706 336 706 Q406 706 463.5 687 Q521 668 561 639 L537 605 Q493 635 446.5 649.5 Q400 664 336 664 Q282 664 239 645 Q196 626 166 591 Q136 556 120.5 506 Q105 456 105 395 L105 295 Q105 152 168.5 78.5 Q232 5 350 5 Q402 5 452 16.5 Q502 28 533 50 L533 307 Z " />
<glyph glyph-name="H" unicode="H" horiz-adv-x="667" d="M579 695 L579 -26 L535 -26 L535 332 L132 332 L132 -26 L88 -26 L88 695 L132 695 L132 373 L535 373 L535 695 L579 695 Z " />
<glyph glyph-name="I" unicode="I" horiz-adv-x="220" d="M132 695 L132 -26 L88 -26 L88 695 L132 695 Z " />
<glyph glyph-name="J" unicode="J" horiz-adv-x="434" d="M352 150 Q352 100 338.5 64.5 Q325 29 301.5 6.5 Q278 -16 245.5 -26.5 Q213 -37 175 -37 Q129 -37 88 -24.5 Q47 -12 14 14 L36 49 Q68 24 102.5 13.5 Q137 3 173 3 Q242 3 275 40 Q308 77 308 151 L308 695 L352 695 L352 150 Z " />
<glyph glyph-name="K" unicode="K" horiz-adv-x="627" d="M277 390 L593 -26 L539 -26 L246 359 L132 242 L132 -26 L88 -26 L88 695 L132 695 L132 298 L515 695 L575 695 L277 390 Z " />
<glyph glyph-name="L" unicode="L" horiz-adv-x="530" d="M132 695 L132 15 L506 15 L506 -26 L88 -26 L88 695 L132 695 Z " />
<glyph glyph-name="M" unicode="M" horiz-adv-x="816" d="M187 507 Q155 569 131 625 L131 -26 L88 -26 L88 695 L138 695 L410 144 L676 695 L728 695 L728 -26 L685 -26 L685 617 Q671 584 657 555 Q643 526 626 494 L428 94 L390 94 L187 507 Z " />
<glyph glyph-name="N" unicode="N" horiz-adv-x="669" d="M148 695 L507 84 Q513 74 522.5 55 Q532 36 538 23 L538 695 L581 695 L581 -26 L521 -26 L162 585 Q154 599 145.5 616 Q137 633 131 646 L131 -26 L88 -26 L88 695 L148 695 Z " />
<glyph glyph-name="O" unicode="O" horiz-adv-x="674" d="M614 289 Q614 218 596.5 158 Q579 98 544.5 54.5 Q510 11 458 -13 Q406 -37 337 -37 Q268 -37 216 -13 Q164 11 129.5 54.5 Q95 98 77.5 158 Q60 218 60 289 L60 380 Q60 451 77.5 511 Q95 571 129.5 614.5 Q164 658 216 682 Q268 706 337 706 Q406 706 458 682 Q510 658 544.5 614.5 Q579 571 596.5 511 Q614 451 614 380 L614 289 Z M569 379 Q569 519 507 592 Q445 665 337 665 Q229 665 167 592 Q105 519 105 379 L105 290 Q105 150 167 77 Q229 4 337 4 Q445 4 507 77 Q569 150 569 290 L569 379 Z " />
<glyph glyph-name="P" unicode="P" horiz-adv-x="579" d="M88 695 L313 695 Q427 695 486 643 Q545 591 545 491 L545 469 Q545 367 484.5 315.5 Q424 264 310 264 L132 264 L132 -26 L88 -26 L88 695 Z M132 654 L132 305 L305 305 Q359 305 396 316.5 Q433 328 456.5 349.5 Q480 371 490 401.5 Q500 432 500 470 L500 489 Q500 526 490 556.5 Q480 587 457.5 608.5 Q435 630 399.5 642 Q364 654 313 654 L132 654 Z " />
<glyph glyph-name="Q" unicode="Q" horiz-adv-x="669" d="M608 289 Q608 215 590 154 Q572 93 535 49 L620 -35 L590 -66 L505 19 Q473 -8 430.5 -22.5 Q388 -37 334 -37 Q265 -37 213.5 -13 Q162 11 128 54.5 Q94 98 77 158 Q60 218 60 289 L60 380 Q60 451 77 511 Q94 571 128 614.5 Q162 658 213.5 682 Q265 706 334 706 Q403 706 454.5 682 Q506 658 540 614.5 Q574 571 591 511 Q608 451 608 380 L608 289 Z M563 379 Q563 519 502.5 592 Q442 665 334 665 Q226 665 165.5 592 Q105 519 105 379 L105 290 Q105 150 165.5 77 Q226 4 334 4 Q419 4 475 49 L367 158 L397 189 L505 80 Q533 116 548 168.5 Q563 221 563 290 L563 379 Z " />
<glyph glyph-name="R" unicode="R" horiz-adv-x="611" d="M88 695 L307 695 Q361 695 405 684.5 Q449 674 480 651.5 Q511 629 527.5 594 Q544 559 544 509 L544 487 Q544 411 506.5 366 Q469 321 403 304 L562 -26 L515 -26 L359 295 Q333 292 304 292 L132 292 L132 -26 L88 -26 L88 695 Z M132 654 L132 333 L299 333 Q403 333 451 372.5 Q499 412 499 488 L499 507 Q499 582 452 618 Q405 654 307 654 L132 654 Z " />
<glyph glyph-name="S" unicode="S" horiz-adv-x="582" d="M293 5 Q339 5 375.5 16.5 Q412 28 437.5 47.5 Q463 67 476 92.5 Q489 118 489 146 L489 172 Q489 202 482 224.5 Q475 247 452 264.5 Q429 282 386 297 Q343 312 271 327 Q202 342 162 362 Q122 382 102 405.5 Q82 429 76.5 455 Q71 481 71 507 L71 532 Q71 577 91 610 Q111 643 143 664 Q175 685 215 695.5 Q255 706 296 706 Q368 706 420.5 689.5 Q473 673 507 648 L486 612 Q451 635 404 649.5 Q357 664 296 664 Q264 664 232 656.5 Q200 649 174 632.5 Q148 616 131.5 591 Q115 566 115 531 L115 508 Q115 484 120.5 464 Q126 444 144.5 427 Q163 410 197.5 395 Q232 380 290 367 Q363 350 410 334 Q457 318 484.5 296.5 Q512 275 522.5 245.5 Q533 216 533 173 L533 145 Q533 110 517 77 Q501 44 470.5 18.5 Q440 -7 395.5 -22 Q351 -37 294 -37 Q228 -37 166.5 -18 Q105 1 54 39 L76 76 Q109 53 139 39 Q169 25 196 17.5 Q223 10 247.5 7.5 Q272 5 293 5 Z " />
<glyph glyph-name="T" unicode="T" horiz-adv-x="568" d="M262 -26 L262 654 L22 654 L22 695 L546 695 L546 654 L306 654 L306 -26 L262 -26 Z " />
<glyph glyph-name="U" unicode="U" horiz-adv-x="666" d="M333 4 Q375 4 413 16.5 Q451 29 479 59 Q507 89 523.5 138 Q540 187 540 261 L540 695 L584 695 L584 247 Q584 107 516 35 Q448 -37 333 -37 Q218 -37 150 35 Q82 107 82 247 L82 695 L126 695 L126 261 Q126 187 142.5 138 Q159 89 187 59 Q215 29 253 16.5 Q291 4 333 4 Z " />
<glyph glyph-name="V" unicode="V" horiz-adv-x="614" d="M67 695 L309 27 L549 695 L596 695 L333 -26 L282 -26 L18 695 L67 695 Z " />
<glyph glyph-name="W" unicode="W" horiz-adv-x="950" d="M914 695 L712 -26 L660 -26 L474 639 L290 -26 L238 -26 L36 695 L83 695 L264 32 L450 695 L500 695 L687 33 L870 695 L914 695 Z " />
<glyph glyph-name="X" unicode="X" horiz-adv-x="603" d="M337 349 L579 -26 L525 -26 L306 320 L76 -26 L24 -26 L278 347 L37 695 L89 695 L308 374 L515 695 L565 695 L337 349 Z " />
<glyph glyph-name="Y" unicode="Y" horiz-adv-x="584" d="M317 273 L317 -26 L273 -26 L273 273 L24 695 L71 695 L296 313 L512 695 L560 695 L317 273 Z " />
<glyph glyph-name="Z" unicode="Z" horiz-adv-x="594" d="M535 660 L86 14 L554 14 L554 -26 L32 -26 L32 9 L481 655 L57 655 L57 695 L535 695 L535 660 Z " />
<glyph glyph-name="bracketleft" unicode="&#x5b;" horiz-adv-x="323" d="M286 -170 L80 -170 L80 766 L286 766 L286 728 L121 728 L121 -132 L286 -132 L286 -170 Z " />
<glyph glyph-name="backslash" unicode="&#x5c;" horiz-adv-x="935" d="M45 391 L154 391 L78 695 L122 695 L195 391 L373 391 L450 695 L498 695 L575 391 L755 391 L829 695 L870 695 L794 391 L906 391 L906 353 L784 353 L690 -26 L641 -26 L545 353 L401 353 L307 -26 L258 -26 L163 353 L45 353 L45 391 Z M667 31 L745 353 L585 353 L667 31 Z M282 30 L363 353 L204 353 L282 30 Z M411 391 L536 391 L473 641 L411 391 Z " />
<glyph glyph-name="bracketright" unicode="&#x5d;" horiz-adv-x="323" d="M37 -132 L202 -132 L202 728 L37 728 L37 766 L243 766 L243 -170 L37 -170 L37 -132 Z " />
<glyph glyph-name="asciicircum" unicode="&#x5e;" horiz-adv-x="524" d="M424 401 L262 682 L100 401 L54 401 L243 724 L282 724 L470 401 L424 401 Z " />
<glyph glyph-name="underscore" unicode="&#x5f;" horiz-adv-x="460" d="M460 -118 L0 -118 L0 -75 L460 -75 L460 -118 Z " />
<glyph glyph-name="grave" unicode="&#x60;" horiz-adv-x="590" d="M329 571 L217 705 L270 705 L371 571 L329 571 Z " />
<glyph glyph-name="a" unicode="a" horiz-adv-x="520" d="M228 -34 Q191 -34 159 -24 Q127 -14 104 5.5 Q81 25 67.5 53.5 Q54 82 54 120 L54 135 Q54 165 64.5 191.5 Q75 218 97.5 237.5 Q120 257 154 268.5 Q188 280 235 280 L398 280 L398 345 Q398 411 362.5 445 Q327 479 256 479 Q212 479 173.5 464.5 Q135 450 98 425 L77 458 Q112 483 158 500.5 Q204 518 259 518 Q343 518 392 474 Q441 430 441 347 L441 -26 L398 -26 L398 49 L397 49 Q389 35 375 19.5 Q361 4 341 -7 Q319 -19 292 -26.5 Q265 -34 228 -34 Z M398 243 L236 243 Q198 243 171.5 234.5 Q145 226 129 211.5 Q113 197 106 177.5 Q99 158 99 136 L99 120 Q99 87 111 65 Q123 43 141.5 29.5 Q160 16 183.5 10 Q207 4 231 4 Q257 4 281 8.5 Q305 13 328 25 Q360 41 379 69 Q398 97 398 129 L398 243 Z " />
<glyph glyph-name="b" unicode="b" horiz-adv-x="566" d="M129 420 Q149 461 194 489.5 Q239 518 301 518 Q397 518 451.5 460 Q506 402 506 291 L506 193 Q506 137 490.5 95 Q475 53 447 24 Q419 -5 380 -19.5 Q341 -34 294 -34 Q246 -34 199 -14.5 Q152 5 128 42 L128 -26 L86 -26 L86 730 L129 730 L129 420 Z M128 134 Q128 108 140 84.5 Q152 61 174.5 43.5 Q197 26 227.5 15.5 Q258 5 296 5 Q371 5 417 55 Q463 105 463 199 L463 285 Q463 380 422 429.5 Q381 479 297 479 Q268 479 238 468 Q208 457 183.5 436 Q159 415 143.5 384.5 Q128 354 128 315 L128 134 Z " />
<glyph glyph-name="c" unicode="c" horiz-adv-x="488" d="M273 518 Q320 518 364.5 506 Q409 494 443 468 L424 435 Q387 460 350 469.5 Q313 479 273 479 Q188 479 145.5 424.5 Q103 370 103 283 L103 207 Q103 162 113.5 125 Q124 88 145.5 61 Q167 34 200 19.5 Q233 5 277 5 Q334 5 374 20 Q414 35 441 58 L462 25 Q434 2 387.5 -16 Q341 -34 276 -34 Q227 -34 187.5 -19 Q148 -4 119.5 26 Q91 56 75.5 101.5 Q60 147 60 208 L60 280 Q60 334 74.5 378 Q89 422 116 453 Q143 484 182.5 501 Q222 518 273 518 Z " />
<glyph glyph-name="d" unicode="d" horiz-adv-x="566" d="M438 64 Q418 23 372 -5.5 Q326 -34 264 -34 Q167 -34 113.5 24 Q60 82 60 193 L60 291 Q60 346 75.5 388.5 Q91 431 119.5 460 Q148 489 186.5 503.5 Q225 518 272 518 Q320 518 366.5 498.5 Q413 479 437 442 L437 730 L480 730 L480 -26 L438 -26 L438 64 Z M438 350 Q438 376 426 399.5 Q414 423 391.5 440.5 Q369 458 338 468.5 Q307 479 270 479 Q195 479 149 429 Q103 379 103 285 L103 199 Q103 104 144 54.5 Q185 5 269 5 Q298 5 328 16 Q358 27 382.5 48 Q407 69 422.5 99.5 Q438 130 438 169 L438 350 Z " />
<glyph glyph-name="e" unicode="e" horiz-adv-x="545" d="M274 480 Q194 480 148 426 Q102 372 102 277 L102 267 L444 267 Q444 373 401 426.5 Q358 480 274 480 Z M281 4 Q338 4 382 19 Q426 34 453 57 L474 25 Q446 2 396.5 -16 Q347 -34 282 -34 Q225 -34 183 -16 Q141 2 114 34.5 Q87 67 73.5 111 Q60 155 60 206 L60 282 Q60 334 75 377.5 Q90 421 117.5 452.5 Q145 484 184.5 501 Q224 518 274 518 Q327 518 366.5 500 Q406 482 432.5 450 Q459 418 472.5 372.5 Q486 327 486 272 L486 232 L102 232 L102 213 Q102 110 149.5 57 Q197 4 281 4 Z " />
<glyph glyph-name="f" unicode="f" horiz-adv-x="341" d="M116 471 L24 471 L24 507 L116 507 L116 587 Q116 633 128.5 662.5 Q141 692 160.5 708 Q180 724 205 730 Q230 736 254 736 Q274 736 294 733 Q314 730 327 725 L321 690 Q305 695 290 697 Q275 699 255 699 Q203 699 181.5 670.5 Q160 642 160 585 L160 507 L311 507 L311 471 L160 471 L160 -26 L116 -26 L116 471 Z " />
<glyph glyph-name="g" unicode="g" horiz-adv-x="568" d="M440 350 Q440 376 428 399.5 Q416 423 393.5 440.5 Q371 458 340 468.5 Q309 479 272 479 Q197 479 151 429 Q105 379 105 285 L105 209 Q105 114 146 64.5 Q187 15 271 15 Q300 15 330 26 Q360 37 384.5 58 Q409 79 424.5 109.5 Q440 140 440 179 L440 350 Z M439 74 Q419 33 373.5 4.5 Q328 -24 266 -24 Q169 -24 115.5 34 Q62 92 62 203 L62 291 Q62 346 77.5 388.5 Q93 431 121.5 460 Q150 489 188.5 503.5 Q227 518 274 518 Q322 518 369 498.5 Q416 479 440 442 L440 507 L482 507 L482 -30 Q482 -89 466 -130.5 Q450 -172 423 -198 Q396 -224 360 -235.5 Q324 -247 284 -247 Q227 -247 186.5 -233 Q146 -219 108 -193 L130 -158 Q169 -185 204 -196.5 Q239 -208 279 -208 Q311 -208 340 -199 Q369 -190 391 -169 Q413 -148 426 -114 Q439 -80 439 -30 L439 74 Z " />
<glyph glyph-name="h" unicode="h" horiz-adv-x="569" d="M489 -26 L446 -26 L446 328 Q446 398 412.5 438.5 Q379 479 297 479 Q254 479 222.5 463.5 Q191 448 170 425.5 Q149 403 139 378.5 Q129 354 129 336 L129 -26 L86 -26 L86 730 L129 730 L129 425 Q136 439 150 455 Q164 471 186 485 Q208 499 237 508.5 Q266 518 304 518 Q354 518 389.5 503.5 Q425 489 447 464 Q469 439 479 407 Q489 375 489 341 L489 -26 Z " />
<glyph glyph-name="i" unicode="i" horiz-adv-x="219" d="M131 507 L131 -26 L88 -26 L88 507 L131 507 Z M135 682 L135 623 L84 623 L84 682 L135 682 Z " />
<glyph glyph-name="j" unicode="j" horiz-adv-x="216" d="M128 -102 Q128 -149 118.5 -177 Q109 -205 92.5 -221 Q76 -237 52.5 -242 Q29 -247 2 -247 Q-15 -247 -36.5 -243.5 Q-58 -240 -75 -234 L-67 -198 Q-28 -210 5 -210 Q29 -210 44.5 -204 Q60 -198 69 -184.5 Q78 -171 81.5 -150 Q85 -129 85 -98 L85 507 L128 507 L128 -102 Z M132 682 L132 623 L81 623 L81 682 L132 682 Z " />
<glyph glyph-name="k" unicode="k" horiz-adv-x="516" d="M263 307 L496 -26 L445 -26 L233 277 L129 177 L129 -26 L86 -26 L86 730 L129 730 L129 232 L411 507 L470 507 L263 307 Z " />
<glyph glyph-name="l" unicode="l" horiz-adv-x="215" d="M129 730 L129 -26 L86 -26 L86 730 L129 730 Z " />
<glyph glyph-name="m" unicode="m" horiz-adv-x="859" d="M779 -26 L736 -26 L736 328 Q736 362 729.5 390 Q723 418 708 438 Q693 458 668 468.5 Q643 479 605 479 Q565 479 536.5 464 Q508 449 489.5 427.5 Q471 406 462.5 382 Q454 358 454 340 L454 -26 L411 -26 L411 328 Q411 362 404.5 390 Q398 418 383 438 Q368 458 342.5 468.5 Q317 479 279 479 Q239 479 210.5 463.5 Q182 448 164 425.5 Q146 403 137.5 378.5 Q129 354 129 336 L129 -26 L86 -26 L86 507 L128 507 L128 425 Q135 439 147.5 455 Q160 471 179 485 Q198 499 224.5 508.5 Q251 518 286 518 Q353 518 390.5 488.5 Q428 459 442 415 Q462 457 505 487.5 Q548 518 612 518 Q659 518 691 503 Q723 488 742.5 463.5 Q762 439 770.5 407 Q779 375 779 341 L779 -26 Z " />
<glyph glyph-name="n" unicode="n" horiz-adv-x="569" d="M489 -26 L446 -26 L446 328 Q446 398 412.5 438.5 Q379 479 297 479 Q254 479 222.5 463.5 Q191 448 170 425.5 Q149 403 139 378.5 Q129 354 129 336 L129 -26 L86 -26 L86 507 L128 507 L128 425 Q135 439 149.5 455 Q164 471 185.5 485 Q207 499 236.5 508.5 Q266 518 304 518 Q354 518 389.5 503.5 Q425 489 447 464 Q469 439 479 407 Q489 375 489 341 L489 -26 Z " />
<glyph glyph-name="o" unicode="o" horiz-adv-x="558" d="M279 518 Q383 518 440.5 455 Q498 392 498 277 L498 207 Q498 92 440.5 29 Q383 -34 279 -34 Q175 -34 117.5 29 Q60 92 60 207 L60 277 Q60 392 117.5 455 Q175 518 279 518 Z M279 3 Q360 3 407.5 53 Q455 103 455 207 L455 277 Q455 381 407.5 431 Q360 481 279 481 Q198 481 150.5 431 Q103 381 103 277 L103 207 Q103 103 150.5 53 Q198 3 279 3 Z " />
<glyph glyph-name="p" unicode="p" horiz-adv-x="566" d="M128 420 Q148 461 193.5 489.5 Q239 518 301 518 Q397 518 451.5 460 Q506 402 506 291 L506 193 Q506 137 490.5 95 Q475 53 447 24 Q419 -5 380 -19.5 Q341 -34 294 -34 Q246 -34 199.5 -14.5 Q153 5 129 42 L129 -240 L86 -240 L86 507 L128 507 L128 420 Z M127 134 Q127 108 139.5 84.5 Q152 61 174 43.5 Q196 26 227 15.5 Q258 5 296 5 Q371 5 417 55 Q463 105 463 199 L463 285 Q463 380 422 429.5 Q381 479 297 479 Q268 479 237.5 468 Q207 457 182.5 436 Q158 415 142.5 384.5 Q127 354 127 315 L127 134 Z " />
<glyph glyph-name="q" unicode="q" horiz-adv-x="566" d="M437 64 Q417 23 371.5 -5.5 Q326 -34 264 -34 Q167 -34 113.5 24 Q60 82 60 193 L60 291 Q60 346 75.5 388.5 Q91 431 119.5 460 Q148 489 186.5 503.5 Q225 518 272 518 Q320 518 367 498.5 Q414 479 438 442 L438 507 L480 507 L480 -240 L437 -240 L437 64 Z M439 350 Q439 376 426.5 399.5 Q414 423 392 440.5 Q370 458 338.5 468.5 Q307 479 270 479 Q195 479 149 429 Q103 379 103 285 L103 199 Q103 104 144 54.5 Q185 5 269 5 Q298 5 328.5 16 Q359 27 383.5 48 Q408 69 423.5 99.5 Q439 130 439 169 L439 350 Z " />
<glyph glyph-name="r" unicode="r" horiz-adv-x="375" d="M346 466 Q333 471 317.5 473.5 Q302 476 282 476 Q244 476 215 460.5 Q186 445 167 418 Q148 391 138.5 354 Q129 317 129 274 L129 -26 L86 -26 L86 507 L128 507 L128 404 Q135 425 148.5 445.5 Q162 466 181.5 482 Q201 498 227 508 Q253 518 285 518 Q308 518 325.5 515 Q343 512 359 506 L346 466 Z " />
<glyph glyph-name="s" unicode="s" horiz-adv-x="493" d="M248 4 Q286 4 315.5 12.5 Q345 21 365 35 Q385 49 395.5 68 Q406 87 406 107 L406 120 Q406 147 397.5 164.5 Q389 182 369.5 194 Q350 206 318 215 Q286 224 238 233 Q200 240 169 250.5 Q138 261 115 276.5 Q92 292 79.5 314.5 Q67 337 67 369 L67 385 Q67 412 78.5 436.5 Q90 461 113.5 479 Q137 497 171.5 507.5 Q206 518 252 518 Q315 518 360 503 Q405 488 430 469 L412 438 Q371 463 334.5 471.5 Q298 480 248 480 Q180 480 144 454.5 Q108 429 108 384 L108 371 Q108 347 119.5 330 Q131 313 151 302 Q171 291 198.5 283.5 Q226 276 258 270 Q307 261 342.5 250 Q378 239 400.5 222.5 Q423 206 433.5 182.5 Q444 159 444 123 L444 105 Q444 71 428 45 Q412 19 385.5 1.5 Q359 -16 324 -25 Q289 -34 252 -34 Q190 -34 139 -16 Q88 2 54 28 L75 62 Q112 36 157.5 20 Q203 4 248 4 Z " />
<glyph glyph-name="t" unicode="t" horiz-adv-x="364" d="M117 471 L24 471 L24 507 L117 507 L117 645 L160 645 L160 507 L311 507 L311 471 L160 471 L160 127 Q160 67 175.5 37 Q191 7 242 7 Q265 7 283.5 10 Q302 13 321 18 L328 -17 Q313 -22 288.5 -26 Q264 -30 246 -30 Q218 -30 194.5 -24.5 Q171 -19 153.5 -3.5 Q136 12 126.5 40.5 Q117 69 117 116 L117 471 Z " />
<glyph glyph-name="u" unicode="u" horiz-adv-x="564" d="M80 507 L123 507 L123 155 Q123 132 127.5 105.5 Q132 79 146 56.5 Q160 34 187.5 19 Q215 4 262 4 Q307 4 339.5 19.5 Q372 35 393 57 Q414 79 424.5 102 Q435 125 435 140 L435 507 L478 507 L478 -26 L436 -26 L436 58 Q431 47 416.5 31.5 Q402 16 379.5 1.5 Q357 -13 327.5 -23.5 Q298 -34 264 -34 Q211 -34 176 -19.5 Q141 -5 119.5 20 Q98 45 89 76.5 Q80 108 80 143 L80 507 Z " />
<glyph glyph-name="v" unicode="v" horiz-adv-x="481" d="M417 507 L462 507 L263 -26 L221 -26 L19 507 L65 507 L243 26 L417 507 Z " />
<glyph glyph-name="w" unicode="w" horiz-adv-x="741" d="M675 507 L717 507 L568 -26 L526 -26 L371 455 L221 -26 L176 -26 L24 507 L68 507 L199 26 L349 507 L392 507 L547 26 L675 507 Z " />
<glyph glyph-name="x" unicode="x" horiz-adv-x="485" d="M272 249 L466 -26 L412 -26 L244 220 L72 -26 L19 -26 L215 245 L34 507 L85 507 L244 274 L402 507 L453 507 L272 249 Z " />
<glyph glyph-name="y" unicode="y" horiz-adv-x="482" d="M417 507 L463 507 L185 -246 L145 -232 L220 -33 L19 507 L64 507 L244 21 L417 507 Z " />
<glyph glyph-name="z" unicode="z" horiz-adv-x="491" d="M434 477 L92 10 L447 10 L447 -26 L39 -26 L39 4 L381 471 L59 471 L59 507 L434 507 L434 477 Z " />
<glyph glyph-name="braceleft" unicode="&#x7b;" horiz-adv-x="389" d="M142 200 Q142 247 112.5 267 Q83 287 28 288 L28 333 Q83 334 112.5 354 Q142 374 142 419 L142 641 Q142 711 177.5 738.5 Q213 766 274 766 L353 766 L353 728 L275 728 Q232 728 207.5 711.5 Q183 695 183 644 L183 427 Q183 387 165 354.5 Q147 322 95 310 Q146 299 164.5 267 Q183 235 183 193 L183 -48 Q183 -99 207.5 -115.5 Q232 -132 275 -132 L353 -132 L353 -170 L274 -170 Q244 -170 219.5 -163.5 Q195 -157 177.5 -142.5 Q160 -128 151 -104 Q142 -80 142 -45 L142 200 Z " />
<glyph glyph-name="bar" unicode="&#x7c;" horiz-adv-x="268" d="M153 -170 L115 -170 L115 765 L153 765 L153 -170 Z " />
<glyph glyph-name="braceright" unicode="&#x7d;" horiz-adv-x="389" d="M247 -45 Q247 -80 238 -104 Q229 -128 211.5 -142.5 Q194 -157 169.5 -163.5 Q145 -170 115 -170 L36 -170 L36 -132 L114 -132 Q157 -132 181.5 -115.5 Q206 -99 206 -48 L206 193 Q206 235 224.5 267 Q243 299 294 310 Q268 316 251 327.5 Q234 339 224 354.5 Q214 370 210 388.5 Q206 407 206 427 L206 644 Q206 695 181.5 711.5 Q157 728 114 728 L36 728 L36 766 L115 766 Q176 766 211.5 738.5 Q247 711 247 641 L247 419 Q247 374 276.5 354 Q306 334 361 333 L361 288 Q306 287 276.5 267 Q247 247 247 200 L247 -45 Z " />
<glyph glyph-name="asciitilde" unicode="&#x7e;" horiz-adv-x="600" d="M397 247 Q362 247 338.5 264.5 Q315 282 294 303 Q273 324 251.5 341.5 Q230 359 201 359 Q175 359 157.5 346.5 Q140 334 129.5 316 Q119 298 113.5 278 Q108 258 106 244 L68 244 Q71 269 80 296 Q89 323 105 345 Q121 367 145 381 Q169 395 202 395 Q238 395 263 377.5 Q288 360 309 339 Q330 318 350.5 300.5 Q371 283 398 283 Q426 283 444 295 Q462 307 473 324.5 Q484 342 488.5 362 Q493 382 495 398 L533 398 Q531 375 523.5 348.5 Q516 322 500.5 299.5 Q485 277 459.5 262 Q434 247 397 247 Z " />
<glyph glyph-name="uni20A9" unicode="&#x20a9;" horiz-adv-x="935" d="M45 391 L154 391 L78 695 L122 695 L195 391 L373 391 L450 695 L498 695 L575 391 L755 391 L829 695 L870 695 L794 391 L906 391 L906 353 L784 353 L690 -26 L641 -26 L545 353 L401 353 L307 -26 L258 -26 L163 353 L45 353 L45 391 Z M667 31 L745 353 L585 353 L667 31 Z M282 30 L363 353 L204 353 L282 30 Z M411 391 L536 391 L473 641 L411 391 Z " />
<glyph glyph-name="uni2010" unicode="&#x2010;" horiz-adv-x="417" d="M38 315 L379 315 L379 266 L38 266 L38 315 Z " />
<glyph glyph-name="copyright" unicode="&#xa9;" horiz-adv-x="856" d="M430 545 Q511 545 565 503 L544 470 Q517 490 488 497 Q459 504 430 504 Q369 504 337 465 Q305 426 305 362 L305 310 Q305 241 337 202 Q369 163 431 163 Q473 163 502 174.5 Q531 186 553 203 L574 169 Q552 152 519 137 Q486 122 432 122 Q353 122 306.5 170.5 Q260 219 260 309 L260 359 Q260 404 272.5 438.5 Q285 473 307.5 496.5 Q330 520 361.5 532.5 Q393 545 430 545 Z M420 3 Q489 3 548 28 Q607 53 650 97.5 Q693 142 717.5 203 Q742 264 742 335 Q742 405 717.5 465.5 Q693 526 650 570.5 Q607 615 548 640 Q489 665 420 665 Q351 665 292 640 Q233 615 190 570.5 Q147 526 122.5 465.5 Q98 405 98 335 Q98 264 122.5 203 Q147 142 190 97.5 Q233 53 292 28 Q351 3 420 3 Z M420 -33 Q342 -33 276 -4.5 Q210 24 162 73.5 Q114 123 87 190.5 Q60 258 60 335 Q60 411 87 478 Q114 545 162 594.5 Q210 644 276 672.5 Q342 701 420 701 Q498 701 564 672.5 Q630 644 678 594.5 Q726 545 753 478 Q780 411 780 335 Q780 258 753 190.5 Q726 123 678 73.5 Q630 24 564 -4.5 Q498 -33 420 -33 Z " />
<glyph glyph-name="&amp;#x3000;" unicode="&#x3000;" horiz-adv-x="910" d="" />
<glyph glyph-name="&amp;#x3164;" unicode="&#x3164;" horiz-adv-x="910" d="" />
<glyph glyph-name="uni3001" unicode="&#x3001;" horiz-adv-x="910" d="M264 -104 Q239 -70 217.5 -43.5 Q196 -17 174.5 6 Q153 29 129.5 50 Q106 71 76 95 L122 133 Q154 109 178.5 88.5 Q203 68 225 46.5 Q247 25 269 0 Q291 -25 317 -58 L264 -104 Z " />
<glyph glyph-name="uni3002" unicode="&#x3002;" horiz-adv-x="910" d="M174 173 Q203 173 228 163 Q253 153 271.5 135 Q290 117 300.5 91.5 Q311 66 311 36 Q311 6 300.5 -19.5 Q290 -45 271.5 -63 Q253 -81 228 -91.5 Q203 -102 174 -102 Q145 -102 120 -91.5 Q95 -81 76.5 -63 Q58 -45 47.5 -19.5 Q37 6 37 36 Q37 66 47.5 91.5 Q58 117 76.5 135 Q95 153 120 163 Q145 173 174 173 Z M174 -64 Q224 -64 247.5 -35 Q271 -6 271 36 Q271 76 247.5 105.5 Q224 135 174 135 Q124 135 100.5 105.5 Q77 76 77 36 Q77 -6 100.5 -35 Q124 -64 174 -64 Z " />
<glyph glyph-name="&amp;#xb7;" unicode="&#xb7;" horiz-adv-x="421" d="M169 349 L253 349 L253 259 L169 259 L169 349 Z " />
<glyph glyph-name="&amp;#x30fb;" unicode="&#x30fb;" horiz-adv-x="421" d="M169 349 L253 349 L253 259 L169 259 L169 349 Z " />
<glyph glyph-name="twodotenleader" unicode="&#x2025;" horiz-adv-x="910" d="M267 349 L351 349 L351 259 L267 259 L267 349 Z M558 349 L642 349 L642 259 L558 259 L558 349 Z " />
<glyph glyph-name="&amp;#x2026;" unicode="&#x2026;" horiz-adv-x="910" d="M147 349 L231 349 L231 259 L147 259 L147 349 Z M679 349 L763 349 L763 259 L679 259 L679 349 Z M413 349 L497 349 L497 259 L413 259 L413 349 Z " />
<glyph glyph-name="&amp;#x22ef;" unicode="&#x22ef;" horiz-adv-x="910" d="M147 349 L231 349 L231 259 L147 259 L147 349 Z M679 349 L763 349 L763 259 L679 259 L679 349 Z M413 349 L497 349 L497 259 L413 259 L413 349 Z " />
<glyph glyph-name="dieresis" unicode="&#xa8;" horiz-adv-x="691" d="M242 662 L296 662 L296 602 L242 602 L242 662 Z M395 662 L449 662 L449 602 L395 602 L395 662 Z " />
<glyph glyph-name="uni3003" unicode="&#x3003;" horiz-adv-x="910" d="M582 444 L637 444 L488 140 L448 140 L582 444 Z M463 444 L313 140 L273 140 L408 444 L463 444 Z " />
<glyph glyph-name="&amp;#xad;" unicode="&#xad;" horiz-adv-x="399" d="M399 287 L0 287 L0 333 L399 333 L399 287 Z " />
<glyph glyph-name="&amp;#x2013;" unicode="&#x2013;" horiz-adv-x="399" d="M399 287 L0 287 L0 333 L399 333 L399 287 Z " />
<glyph glyph-name="&amp;#x2014;" unicode="&#x2014;" horiz-adv-x="798" d="M798 287 L0 287 L0 333 L798 333 L798 287 Z " />
<glyph glyph-name="&amp;#x2015;" unicode="&#x2015;" horiz-adv-x="798" d="M798 287 L0 287 L0 333 L798 333 L798 287 Z " />
<glyph glyph-name="uni2016" unicode="&#x2016;" horiz-adv-x="910" d="M395 -180 L339 -180 L339 780 L395 780 L395 -180 Z M571 -180 L514 -180 L514 780 L571 780 L571 -180 Z " />
<glyph glyph-name="uniFF3C" unicode="&#xff3c;" horiz-adv-x="910" d="M868 -123 L837 -154 L42 725 L72 758 L868 -123 Z " />
<glyph glyph-name="&amp;#x223c;" unicode="&#x223c;" horiz-adv-x="910" d="M742 339 Q731 321 714 304 Q697 287 677 274 Q657 261 635 253 Q613 245 591 245 Q548 245 517.5 254 Q487 263 455 280 Q429 294 394 307.5 Q359 321 319 321 Q282 321 255 303.5 Q228 286 209 258 L168 285 Q179 303 196 320 Q213 337 233 350 Q253 363 275 371 Q297 379 319 379 Q362 379 392.5 370 Q423 361 455 344 Q487 327 519 315 Q551 303 591 303 Q628 303 655 320.5 Q682 338 701 366 L742 339 Z " />
<glyph glyph-name="&amp;#x301c;" unicode="&#x301c;" horiz-adv-x="910" d="M742 339 Q731 321 714 304 Q697 287 677 274 Q657 261 635 253 Q613 245 591 245 Q548 245 517.5 254 Q487 263 455 280 Q429 294 394 307.5 Q359 321 319 321 Q282 321 255 303.5 Q228 286 209 258 L168 285 Q179 303 196 320 Q213 337 233 350 Q253 363 275 371 Q297 379 319 379 Q362 379 392.5 370 Q423 361 455 344 Q487 327 519 315 Q551 303 591 303 Q628 303 655 320.5 Q682 338 701 366 L742 339 Z " />
<glyph glyph-name="&amp;#xff5e;" unicode="&#xff5e;" horiz-adv-x="910" d="M742 339 Q731 321 714 304 Q697 287 677 274 Q657 261 635 253 Q613 245 591 245 Q548 245 517.5 254 Q487 263 455 280 Q429 294 394 307.5 Q359 321 319 321 Q282 321 255 303.5 Q228 286 209 258 L168 285 Q179 303 196 320 Q213 337 233 350 Q253 363 275 371 Q297 379 319 379 Q362 379 392.5 370 Q423 361 455 344 Q487 327 519 315 Q551 303 591 303 Q628 303 655 320.5 Q682 338 701 366 L742 339 Z " />
<glyph glyph-name="quoteleft" unicode="&#x2018;" horiz-adv-x="200" d="M119 549 L63 549 L128 769 L162 769 L119 549 Z " />
<glyph glyph-name="quoteright" unicode="&#x2019;" horiz-adv-x="200" d="M81 756 L137 756 L72 536 L38 536 L81 756 Z " />
<glyph glyph-name="quotedblleft" unicode="&#x201c;" horiz-adv-x="350" d="M263 549 L204 549 L269 769 L305 769 L263 549 Z M127 549 L68 549 L133 769 L169 769 L127 549 Z " />
<glyph glyph-name="quotedblright" unicode="&#x201d;" horiz-adv-x="350" d="M87 756 L146 756 L81 536 L45 536 L87 756 Z M223 756 L282 756 L217 536 L181 536 L223 756 Z " />
<glyph glyph-name="uni3014" unicode="&#x3014;" horiz-adv-x="344" d="M303 -103 L279 -146 L43 -14 L43 616 L279 747 L303 704 L96 588 L96 14 L303 -103 Z " />
<glyph glyph-name="uni3015" unicode="&#x3015;" horiz-adv-x="358" d="M309 -14 L72 -146 L48 -103 L256 15 L256 588 L48 704 L72 747 L309 616 L309 -14 Z " />
<glyph glyph-name="uni3008" unicode="&#x3008;" horiz-adv-x="467" d="M421 -106 L388 -131 L47 301 L387 733 L421 707 L100 301 L421 -106 Z " />
<glyph glyph-name="uni3009" unicode="&#x3009;" horiz-adv-x="477" d="M425 301 L85 -131 L52 -106 L373 301 L52 707 L84 733 L425 301 Z " />
<glyph glyph-name="uni300A" unicode="&#x300a;" horiz-adv-x="459" d="M324 -130 L290 -151 L29 301 L290 752 L324 732 L74 301 L324 -130 Z M423 -130 L388 -151 L128 301 L388 752 L423 732 L174 301 L423 -130 Z " />
<glyph glyph-name="uni300B" unicode="&#x300b;" horiz-adv-x="458" d="M323 301 L62 -151 L28 -130 L276 301 L28 732 L62 752 L323 301 Z M421 301 L161 -151 L126 -130 L376 301 L126 732 L161 752 L421 301 Z " />
<glyph glyph-name="uni300C" unicode="&#x300c;" horiz-adv-x="351" d="M322 715 L96 715 L96 340 L29 340 L29 769 L322 769 L322 715 Z " />
<glyph glyph-name="uni300D" unicode="&#x300d;" horiz-adv-x="351" d="M322 -167 L29 -167 L29 -113 L255 -113 L255 262 L322 262 L322 -167 Z " />
<glyph glyph-name="uni300E" unicode="&#x300e;" horiz-adv-x="341" d="M276 713 L276 739 L68 739 L68 371 L107 371 L107 713 L276 713 Z M314 682 L142 682 L142 340 L32 340 L32 769 L314 769 L314 682 Z " />
<glyph glyph-name="uni300F" unicode="&#x300f;" horiz-adv-x="346" d="M70 -112 L70 -138 L278 -138 L278 230 L239 230 L239 -112 L70 -112 Z M32 -81 L204 -81 L204 261 L314 261 L314 -168 L32 -168 L32 -81 Z " />
<glyph glyph-name="uni3010" unicode="&#x3010;" horiz-adv-x="374" d="M20 -128 L20 730 L376 730 Q320 693 274 645.5 Q228 598 195.5 542.5 Q163 487 145 425.5 Q127 364 127 300 Q127 235 145 174 Q163 113 195.5 58 Q228 3 274 -44.5 Q320 -92 377 -128 L20 -128 Z " />
<glyph glyph-name="uni3011" unicode="&#x3011;" horiz-adv-x="382" d="M358 -128 L0 -128 Q57 -92 103.5 -44.5 Q150 3 182.5 58 Q215 113 233 174.5 Q251 236 251 300 Q251 364 233 426 Q215 488 182.5 543.5 Q150 599 104 646.5 Q58 694 1 731 L358 731 L358 -128 Z " />
<glyph glyph-name="plusminus" unicode="&#xb1;" horiz-adv-x="590" d="M529 104 L529 68 L62 68 L62 104 L529 104 Z M321 646 L321 422 L538 422 L538 382 L321 382 L321 163 L279 163 L279 382 L62 382 L62 422 L279 422 L279 646 L321 646 Z " />
<glyph glyph-name="multiply" unicode="&#xd7;" horiz-adv-x="590" d="M300 357 L481 546 L516 510 L335 321 L516 132 L481 96 L300 285 L120 96 L85 132 L266 321 L85 510 L120 546 L300 357 Z " />
<glyph glyph-name="divide" unicode="&#xf7;" horiz-adv-x="590" d="M60 342 L540 342 L540 298 L60 298 L60 342 Z M266 553 L335 553 L335 486 L266 486 L266 553 Z M266 154 L335 154 L335 87 L266 87 L266 154 Z " />
<glyph glyph-name="notequal" unicode="&#x2260;" horiz-adv-x="590" d="M74 448 L356 448 L451 592 L493 592 L398 448 L516 448 L516 403 L370 403 L260 237 L516 237 L516 192 L232 192 L139 50 L97 50 L190 192 L74 192 L74 237 L218 237 L328 403 L74 403 L74 448 Z " />
<glyph glyph-name="lessequal" unicode="&#x2264;" horiz-adv-x="590" d="M529 174 L64 375 L64 412 L529 610 L529 568 L113 393 L529 216 L529 174 Z M61 60 L61 97 L529 97 L529 60 L61 60 Z " />
<glyph glyph-name="greaterequal" unicode="&#x2265;" horiz-adv-x="590" d="M61 216 L477 393 L61 568 L61 610 L526 412 L526 375 L61 174 L61 216 Z M61 60 L61 97 L529 97 L529 60 L61 60 Z " />
<glyph glyph-name="infinity" unicode="&#x221e;" horiz-adv-x="590" d="M450 166 Q418 166 395.5 177.5 Q373 189 355.5 206 Q338 223 323.5 243.5 Q309 264 295 282 Q276 258 258.5 237 Q241 216 221.5 200.5 Q202 185 179.5 175.5 Q157 166 129 166 Q73 166 39.5 202 Q6 238 6 306 Q6 336 16 361.5 Q26 387 43.5 405.5 Q61 424 85 434 Q109 444 137 444 Q164 444 187.5 431.5 Q211 419 230.5 401 Q250 383 265.5 363 Q281 343 293 328 Q312 351 329 372 Q346 393 364.5 409 Q383 425 405.5 434.5 Q428 444 458 444 Q516 444 550.5 408 Q585 372 585 306 Q585 274 574.5 248.5 Q564 223 545.5 204.5 Q527 186 502.5 176 Q478 166 450 166 Z M450 202 Q494 202 521 230.5 Q548 259 548 306 Q548 356 522 382.5 Q496 409 455 409 Q431 409 412.5 399.5 Q394 390 377.5 375 Q361 360 347 341.5 Q333 323 318 304 Q329 289 341.5 271 Q354 253 369.5 238 Q385 223 405 212.5 Q425 202 450 202 Z M132 202 Q173 202 204.5 230 Q236 258 271 305 Q259 321 244 339.5 Q229 358 212 373.5 Q195 389 176 399 Q157 409 136 409 Q94 409 69 380.5 Q44 352 44 306 Q44 253 67 227.5 Q90 202 132 202 Z " />
<glyph glyph-name="therefore" unicode="&#x2234;" horiz-adv-x="590" d="M538 114 Q538 94 524.5 80.5 Q511 67 491 67 Q471 67 457.5 80.5 Q444 94 444 114 Q444 134 457.5 147 Q471 160 491 160 Q511 160 524.5 147 Q538 134 538 114 Z M146 114 Q146 94 132 80.5 Q118 67 99 67 Q78 67 65 80.5 Q52 94 52 114 Q52 134 65 147 Q78 160 99 160 Q118 160 132 147 Q146 134 146 114 Z M346 523 Q346 502 333.5 488.5 Q321 475 300 475 Q279 475 265.5 488.5 Q252 502 252 523 Q252 541 265.5 555 Q279 569 300 569 Q321 569 333.5 555 Q346 541 346 523 Z " />
<glyph glyph-name="degree" unicode="&#xb0;" horiz-adv-x="292" d="M254 609 Q254 564 224.5 532.5 Q195 501 146 501 Q97 501 67.5 532.5 Q38 564 38 609 Q38 654 67.5 685.5 Q97 717 146 717 Q195 717 224.5 685.5 Q254 654 254 609 Z M215 609 Q215 639 196.5 660 Q178 681 146 681 Q114 681 95.5 660 Q77 639 77 609 Q77 579 95.5 558 Q114 537 146 537 Q178 537 196.5 558 Q215 579 215 609 Z " />
<glyph glyph-name="minute" unicode="&#x2032;" horiz-adv-x="486" d="M262 727 L326 727 L195 491 L160 491 L262 727 Z " />
<glyph glyph-name="second" unicode="&#x2033;" horiz-adv-x="585" d="M376 727 L435 727 L304 491 L274 491 L376 727 Z M252 727 L311 727 L180 491 L150 491 L252 727 Z " />
<glyph glyph-name="uni2103" unicode="&#x2103;" horiz-adv-x="767" d="M145 565 Q172 565 186.5 581 Q201 597 201 623 Q201 648 186.5 664 Q172 680 145 680 Q118 680 103.5 664 Q89 648 89 623 Q89 597 103.5 581 Q118 565 145 565 Z M145 535 Q103 535 79.5 560 Q56 585 56 622 Q56 659 79.5 684 Q103 709 145 709 Q187 709 210.5 684 Q234 659 234 622 Q234 585 210.5 560 Q187 535 145 535 Z M742 45 Q731 35 712 21 Q693 7 665.5 -6 Q638 -19 602 -28 Q566 -37 521 -37 Q446 -37 393.5 -12.5 Q341 12 308 57 Q275 102 259.5 165.5 Q244 229 244 306 L244 383 Q244 457 260.5 517 Q277 577 310.5 619 Q344 661 393.5 683.5 Q443 706 509 706 Q577 706 630.5 687 Q684 668 724 639 L700 604 Q656 634 613.5 648.5 Q571 663 509 663 Q456 663 415 644 Q374 625 346 590.5 Q318 556 303.5 506 Q289 456 289 395 L289 295 Q289 152 348 79 Q407 6 523 6 Q557 6 587 13 Q617 20 641.5 31 Q666 42 684.5 55 Q703 68 716 79 L742 45 Z " />
<glyph glyph-name="uni212B" unicode="&#x212b;" horiz-adv-x="643" d="M412 740 Q412 711 398 689.5 Q384 668 358 659 L620 -26 L571 -26 L485 207 L159 207 L71 -26 L23 -26 L287 659 Q261 668 247.5 689.5 Q234 711 234 740 Q234 777 257.5 802 Q281 827 323 827 Q365 827 388.5 802 Q412 777 412 740 Z M174 246 L470 246 L384 479 Q368 523 352 564.5 Q336 606 323 648 Q311 606 295.5 564.5 Q280 523 263 479 L174 246 Z M323 683 Q350 683 364.5 699 Q379 715 379 741 Q379 766 364.5 782 Q350 798 323 798 Q296 798 281.5 782 Q267 766 267 741 Q267 715 281.5 699 Q296 683 323 683 Z " />
<glyph glyph-name="&amp;#xa2;" unicode="&#xa2;" horiz-adv-x="487" d="M266 73 Q174 77 118.5 137.5 Q63 198 63 315 L63 360 Q63 465 116 529 Q169 593 266 598 L266 695 L306 695 L306 597 Q346 594 383.5 582 Q421 570 450 548 L431 515 Q400 535 369 545 Q338 555 306 558 L306 112 Q354 116 389 130.5 Q424 145 448 165 L469 132 Q443 111 402 94.5 Q361 78 306 74 L306 -26 L266 -26 L266 73 Z M105 314 Q105 228 145 172.5 Q185 117 266 112 L266 559 Q186 554 145.5 501 Q105 448 105 363 L105 314 Z " />
<glyph glyph-name="&amp;#xffe0;" unicode="&#xffe0;" horiz-adv-x="487" d="M266 73 Q174 77 118.5 137.5 Q63 198 63 315 L63 360 Q63 465 116 529 Q169 593 266 598 L266 695 L306 695 L306 597 Q346 594 383.5 582 Q421 570 450 548 L431 515 Q400 535 369 545 Q338 555 306 558 L306 112 Q354 116 389 130.5 Q424 145 448 165 L469 132 Q443 111 402 94.5 Q361 78 306 74 L306 -26 L266 -26 L266 73 Z M105 314 Q105 228 145 172.5 Q185 117 266 112 L266 559 Q186 554 145.5 501 Q105 448 105 363 L105 314 Z " />
<glyph glyph-name="&amp;#xa3;" unicode="&#xa3;" horiz-adv-x="569" d="M68 362 L170 362 L170 483 Q170 539 184.5 578.5 Q199 618 224.5 643.5 Q250 669 284.5 681 Q319 693 358 693 Q403 693 436 684 Q469 675 494 662 L480 627 Q451 640 424.5 646.5 Q398 653 363 653 Q333 653 306 644.5 Q279 636 258.5 616 Q238 596 226 563 Q214 530 214 481 L214 362 L422 362 L422 322 L214 322 L214 200 Q214 131 200.5 88.5 Q187 46 144 17 L144 15 L526 15 L526 -26 L85 -26 L85 14 Q134 42 152 85.5 Q170 129 170 201 L170 322 L68 322 L68 362 Z " />
<glyph glyph-name="&amp;#xffe1;" unicode="&#xffe1;" horiz-adv-x="569" d="M68 362 L170 362 L170 483 Q170 539 184.5 578.5 Q199 618 224.5 643.5 Q250 669 284.5 681 Q319 693 358 693 Q403 693 436 684 Q469 675 494 662 L480 627 Q451 640 424.5 646.5 Q398 653 363 653 Q333 653 306 644.5 Q279 636 258.5 616 Q238 596 226 563 Q214 530 214 481 L214 362 L422 362 L422 322 L214 322 L214 200 Q214 131 200.5 88.5 Q187 46 144 17 L144 15 L526 15 L526 -26 L85 -26 L85 14 Q134 42 152 85.5 Q170 129 170 201 L170 322 L68 322 L68 362 Z " />
<glyph glyph-name="&amp;#xa5;" unicode="&#xa5;" horiz-adv-x="624" d="M295 137 L115 137 L115 176 L295 176 L295 265 L115 265 L115 304 L282 304 L52 688 L102 688 L315 321 L316 321 L521 688 L572 688 L352 304 L519 304 L519 265 L339 265 L339 176 L519 176 L519 137 L339 137 L339 -26 L295 -26 L295 137 Z " />
<glyph glyph-name="&amp;#xffe5;" unicode="&#xffe5;" horiz-adv-x="624" d="M295 137 L115 137 L115 176 L295 176 L295 265 L115 265 L115 304 L282 304 L52 688 L102 688 L315 321 L316 321 L521 688 L572 688 L352 304 L519 304 L519 265 L339 265 L339 176 L519 176 L519 137 L339 137 L339 -26 L295 -26 L295 137 Z " />
<glyph glyph-name="male" unicode="&#x2642;" horiz-adv-x="776" d="M49 262 Q49 319 70.5 369.5 Q92 420 129.5 457.5 Q167 495 217.5 517 Q268 539 326 539 Q375 539 418.5 523 Q462 507 498 479 L625 605 L512 605 L512 663 L728 663 L728 448 L669 448 L669 562 L542 434 Q570 399 586.5 355 Q603 311 603 262 Q603 205 581 154.5 Q559 104 521.5 66.5 Q484 29 433.5 7 Q383 -15 326 -15 Q268 -15 217.5 7 Q167 29 129.5 66.5 Q92 104 70.5 154.5 Q49 205 49 262 Z M101 262 Q101 215 118 173.5 Q135 132 165.5 100.5 Q196 69 237 50.5 Q278 32 326 32 Q374 32 415 50.5 Q456 69 486 100.5 Q516 132 533.5 173.5 Q551 215 551 262 Q551 310 533.5 351.5 Q516 393 486 424.5 Q456 456 415 474 Q374 492 326 492 Q278 492 237 474 Q196 456 165.5 424.5 Q135 393 118 351.5 Q101 310 101 262 Z " />
<glyph glyph-name="female" unicode="&#x2640;" horiz-adv-x="652" d="M294 187 Q242 194 197.5 218 Q153 242 120 278 Q87 314 68 361 Q49 408 49 462 Q49 519 70.5 569.5 Q92 620 129.5 657.5 Q167 695 217.5 717 Q268 739 326 739 Q383 739 433.5 717 Q484 695 521.5 657.5 Q559 620 581 569.5 Q603 519 603 462 Q603 408 584.5 361 Q566 314 533 277.5 Q500 241 455.5 217.5 Q411 194 359 187 L359 55 L502 55 L502 -4 L359 -4 L359 -149 L294 -149 L294 -4 L149 -4 L149 55 L294 55 L294 187 Z M101 462 Q101 415 118 373.5 Q135 332 165.5 300.5 Q196 269 237 250.5 Q278 232 326 232 Q374 232 415 250.5 Q456 269 486 300.5 Q516 332 533.5 373.5 Q551 415 551 462 Q551 510 533.5 551.5 Q516 593 486 624.5 Q456 656 415 674 Q374 692 326 692 Q278 692 237 674 Q196 656 165.5 624.5 Q135 593 118 551.5 Q101 510 101 462 Z " />
<glyph glyph-name="angle" unicode="&#x2220;" horiz-adv-x="910" d="M760 0 L151 0 L151 41 L624 592 L670 555 L239 56 L760 56 L760 0 Z " />
<glyph glyph-name="perpendicular" unicode="&#x22a5;" horiz-adv-x="910" d="M774 0 L136 0 L136 59 L426 59 L426 573 L485 573 L485 59 L774 59 L774 0 Z " />
<glyph glyph-name="uni2312" unicode="&#x2312;" horiz-adv-x="910" d="M652 576 Q639 599 620 620 Q601 641 576.5 657 Q552 673 522 682.5 Q492 692 456 692 Q420 692 389.5 682.5 Q359 673 334 657 Q309 641 290.5 620 Q272 599 259 576 L197 576 Q237 648 298.5 692 Q360 736 454 736 Q549 736 611 692 Q673 648 712 576 L652 576 Z " />
<glyph glyph-name="partialdiff" unicode="&#x2202;" horiz-adv-x="500" d="M64 673 Q93 693 134 708 Q175 723 223 723 Q272 723 316 703 Q360 683 393.5 641 Q427 599 447 533 Q467 467 467 374 Q467 277 446 205 Q425 133 390 85 Q355 37 308.5 13 Q262 -11 211 -11 Q164 -11 130 5 Q96 21 73.5 49 Q51 77 40 114 Q29 151 29 192 Q29 246 46.5 291 Q64 336 93.5 367.5 Q123 399 162 416.5 Q201 434 244 434 Q277 434 305.5 425 Q334 416 356.5 401.5 Q379 387 395.5 370 Q412 353 421 337 L422 337 Q423 348 423 359 Q423 370 423 381 Q423 461 406 518 Q389 575 361.5 611.5 Q334 648 297.5 665 Q261 682 222 682 Q176 682 141.5 669.5 Q107 657 80 640 L64 673 Z M216 31 Q256 31 289.5 51 Q323 71 348.5 105 Q374 139 391 184.5 Q408 230 414 281 Q396 327 351 359.5 Q306 392 245 392 Q210 392 179.5 378 Q149 364 126 338.5 Q103 313 89.5 276.5 Q76 240 76 195 Q76 117 113.5 74 Q151 31 216 31 Z " />
<glyph glyph-name="gradient" unicode="&#x2207;" horiz-adv-x="910" d="M755 550 L156 550 L455 69 L755 550 Z M841 593 L455 -19 L69 593 L841 593 Z " />
<glyph glyph-name="equivalence" unicode="&#x2261;" horiz-adv-x="590" d="M60 157 L60 198 L530 198 L530 157 L60 157 Z M60 439 L60 480 L530 480 L530 439 L60 439 Z M60 298 L60 338 L530 338 L530 298 L60 298 Z " />
<glyph glyph-name="uni2252" unicode="&#x2252;" horiz-adv-x="590" d="M54 258 L536 258 L536 207 L54 207 L54 258 Z M54 419 L536 419 L536 369 L54 369 L54 419 Z M147 532 Q147 558 166 576.5 Q185 595 211 595 Q237 595 255.5 576.5 Q274 558 274 532 Q274 506 255.5 487 Q237 468 211 468 Q185 468 166 487 Q147 506 147 532 Z M333 92 Q333 118 351.5 137.5 Q370 157 396 157 Q422 157 441 137.5 Q460 118 460 92 Q460 66 441 47.5 Q422 29 396 29 Q370 29 351.5 47.5 Q333 66 333 92 Z " />
<glyph glyph-name="section" unicode="&#xa7;" horiz-adv-x="510" d="M471 260 Q471 210 439.5 174.5 Q408 139 360 122 Q387 105 404 76 Q421 47 421 -4 Q421 -70 372.5 -110.5 Q324 -151 237 -151 Q191 -151 147 -140.5 Q103 -130 76 -113 L76 -75 Q105 -89 145.5 -100 Q186 -111 237 -111 Q303 -111 339.5 -83.5 Q376 -56 376 -6 Q376 39 357 64 Q338 89 286 107 Q254 118 224.5 126 Q195 134 170 143 Q140 154 116.5 166.5 Q93 179 76 196 Q59 213 50 235.5 Q41 258 41 290 Q41 339 72 374.5 Q103 410 152 427 Q125 444 108 473.5 Q91 503 91 554 Q91 620 136.5 660.5 Q182 701 269 701 Q317 701 352 692 Q387 683 410 672 L410 635 Q387 646 351.5 653.5 Q316 661 269 661 Q203 661 169.5 633.5 Q136 606 136 556 Q136 533 140 516 Q144 499 154.5 486 Q165 473 182.5 462.5 Q200 452 226 443 Q258 432 287.5 424 Q317 416 342 407 Q372 396 395.5 383.5 Q419 371 436 354 Q453 337 462 314 Q471 291 471 260 Z M207 403 Q202 404 192 408 Q145 394 115.5 363.5 Q86 333 86 293 Q86 267 94 249 Q102 231 118 218 Q134 205 156.5 195 Q179 185 208 176 Q231 168 256.5 161 Q282 154 305 147 L320 142 Q367 156 396.5 186.5 Q426 217 426 257 Q426 283 418 301 Q410 319 394 332 Q378 345 355.5 355 Q333 365 304 374 Q281 382 255.5 389 Q230 396 207 403 Z " />
<glyph glyph-name="uni203B" unicode="&#x203b;" horiz-adv-x="910" d="M485 322 L805 -1 Q797 -10 788 -18 Q779 -26 771 -35 L455 290 Q376 209 296.5 128 Q217 47 138 -35 L108 -4 L426 321 L110 642 L141 675 Q219 594 298 513.5 Q377 433 455 352 L775 675 L804 645 L485 322 Z M93 322 Q93 348 110 365.5 Q127 383 153 383 Q179 383 196 365.5 Q213 348 213 322 Q213 296 196 278.5 Q179 261 153 261 Q127 261 110 278.5 Q93 296 93 322 Z M396 26 Q396 52 413 69.5 Q430 87 456 87 Q482 87 499 69.5 Q516 52 516 26 Q516 0 499 -17.5 Q482 -35 456 -35 Q430 -35 413 -17.5 Q396 0 396 26 Z M396 616 Q396 642 413 659.5 Q430 677 456 677 Q482 677 499 659.5 Q516 642 516 616 Q516 590 499 572.5 Q482 555 456 555 Q430 555 413 572.5 Q396 590 396 616 Z M699 322 Q699 348 716 365.5 Q733 383 759 383 Q785 383 802 365.5 Q819 348 819 322 Q819 296 802 278.5 Q785 261 759 261 Q733 261 716 278.5 Q699 296 699 322 Z " />
<glyph glyph-name="uni2606" unicode="&#x2606;" horiz-adv-x="910" d="M564 454 L898 454 L628 253 L728 -66 L457 128 L181 -66 L285 253 L13 454 L351 454 L457 770 L564 454 Z M456 694 L368 429 L85 429 L312 260 L223 -8 L456 155 L684 -8 L600 260 L827 429 L547 429 L456 694 Z " />
<glyph glyph-name="uni2605" unicode="&#x2605;" horiz-adv-x="910" d="M564 454 L898 454 L628 253 L728 -66 L457 128 L181 -66 L285 253 L13 454 L351 454 L457 770 L564 454 Z " />
<glyph glyph-name="circle" unicode="&#x25cb;" horiz-adv-x="910" d="M99 354 Q99 427 126.5 492 Q154 557 202 605.5 Q250 654 314.5 682 Q379 710 453 710 Q527 710 592 682 Q657 654 705 605.5 Q753 557 781 492 Q809 427 809 354 Q809 280 781 215.5 Q753 151 705 103 Q657 55 592 27 Q527 -1 453 -1 Q379 -1 314.5 27 Q250 55 202 103 Q154 151 126.5 215.5 Q99 280 99 354 Z M136 354 Q136 288 161 230.5 Q186 173 229 130 Q272 87 329.5 62 Q387 37 453 37 Q519 37 577.5 62 Q636 87 679 130 Q722 173 747 230.5 Q772 288 772 354 Q772 420 747 478 Q722 536 679 579.5 Q636 623 577.5 648 Q519 673 453 673 Q387 673 329.5 648 Q272 623 229 579.5 Q186 536 161 478 Q136 420 136 354 Z " />
<glyph glyph-name="H18533" unicode="&#x25cf;" horiz-adv-x="910" d="M99 354 Q99 427 126.5 492 Q154 557 202 605.5 Q250 654 314.5 682 Q379 710 453 710 Q527 710 592 682 Q657 654 705 605.5 Q753 557 781 492 Q809 427 809 354 Q809 280 781 215.5 Q753 151 705 103 Q657 55 592 27 Q527 -1 453 -1 Q379 -1 314.5 27 Q250 55 202 103 Q154 151 126.5 215.5 Q99 280 99 354 Z " />
<glyph glyph-name="uni25CE" unicode="&#x25ce;" horiz-adv-x="910" d="M99 354 Q99 427 126.5 492 Q154 557 202 605.5 Q250 654 314.5 682 Q379 710 453 710 Q527 710 592 682 Q657 654 705 605.5 Q753 557 781 492 Q809 427 809 354 Q809 280 781 215.5 Q753 151 705 103 Q657 55 592 27 Q527 -1 453 -1 Q379 -1 314.5 27 Q250 55 202 103 Q154 151 126.5 215.5 Q99 280 99 354 Z M138 354 Q138 289 162.5 231.5 Q187 174 230 131 Q273 88 330.5 63.5 Q388 39 453 39 Q519 39 576.5 63.5 Q634 88 677 131 Q720 174 744.5 231.5 Q769 289 769 354 Q769 419 744.5 476.5 Q720 534 677 577 Q634 620 576.5 645 Q519 670 453 670 Q388 670 330.5 645 Q273 620 230 577 Q187 534 162.5 476.5 Q138 419 138 354 Z M238 354 Q238 398 255 437 Q272 476 301 505.5 Q330 535 369 552 Q408 569 453 569 Q498 569 537 552 Q576 535 605 505.5 Q634 476 651 437 Q668 398 668 354 Q668 309 651 270 Q634 231 605 202 Q576 173 537 156 Q498 139 453 139 Q408 139 369 156 Q330 173 301 202 Q272 231 255 270 Q238 309 238 354 Z M285 354 Q285 319 298.5 288.5 Q312 258 334.5 235.5 Q357 213 387.5 199.5 Q418 186 453 186 Q488 186 519 199.5 Q550 213 573 235.5 Q596 258 609.5 288.5 Q623 319 623 354 Q623 388 609.5 419 Q596 450 573 473.5 Q550 497 519 510.5 Q488 524 453 524 Q418 524 387.5 510.5 Q357 497 334.5 473.5 Q312 450 298.5 419 Q285 388 285 354 Z " />
<glyph glyph-name="uni25C7" unicode="&#x25c7;" horiz-adv-x="910" d="M455 738 L839 353 L455 -32 L70 353 L455 738 Z M455 675 L134 354 L455 32 L776 353 L455 675 Z " />
<glyph glyph-name="uni25C6" unicode="&#x25c6;" horiz-adv-x="910" d="M70 354 L455 738 L840 353 L456 -32 L70 354 Z " />
<glyph glyph-name="H22073" unicode="&#x25a1;" horiz-adv-x="910" d="M114 694 L794 694 L794 14 L114 14 L114 694 Z M152 655 L152 53 L755 53 L755 655 L152 655 Z " />
<glyph glyph-name="filledbox" unicode="&#x25a0;" horiz-adv-x="910" d="M115 14 L115 694 L796 694 L796 14 L115 14 Z " />
<glyph glyph-name="uni25B3" unicode="&#x25b3;" horiz-adv-x="910" d="M91 -90 L455 634 L820 -90 L91 -90 Z M745 -47 L453 535 L162 -47 L745 -47 Z " />
<glyph glyph-name="triagup" unicode="&#x25b2;" horiz-adv-x="910" d="M92 -85 L455 639 L819 -85 L92 -85 Z " />
<glyph glyph-name="uni25BD" unicode="&#x25bd;" horiz-adv-x="910" d="M820 641 L455 -83 L91 641 L820 641 Z M164 597 L455 15 L747 597 L164 597 Z " />
<glyph glyph-name="triagdn" unicode="&#x25bc;" horiz-adv-x="910" d="M819 641 L455 -83 L92 641 L819 641 Z " />
<glyph glyph-name="arrowright" unicode="&#x2192;" horiz-adv-x="910" d="M104 373 L657 373 L582 500 L597 517 L805 344 L597 171 L582 188 L657 314 L104 314 L104 373 Z " />
<glyph glyph-name="arrowleft" unicode="&#x2190;" horiz-adv-x="910" d="M805 314 L252 314 L327 188 L312 171 L104 344 L312 517 L327 500 L252 373 L805 373 L805 314 Z " />
<glyph glyph-name="arrowup" unicode="&#x2191;" horiz-adv-x="910" d="M426 0 L426 553 L299 478 L282 493 L455 701 L628 493 L611 478 L484 553 L484 0 L426 0 Z " />
<glyph glyph-name="arrowdown" unicode="&#x2193;" horiz-adv-x="910" d="M484 687 L484 135 L611 209 L628 194 L455 -14 L282 194 L299 209 L426 135 L426 687 L484 687 Z " />
<glyph glyph-name="arrowboth" unicode="&#x2194;" horiz-adv-x="910" d="M282 188 L267 171 L59 344 L267 517 L282 500 L207 373 L703 373 L628 500 L643 517 L851 344 L643 171 L628 188 L703 314 L207 314 L282 188 Z " />
<glyph glyph-name="uni3013" unicode="&#x3013;" horiz-adv-x="910" d="M779 195 L131 195 L131 233 L779 233 L779 195 Z M779 391 L131 391 L131 429 L779 429 L779 391 Z " />
<glyph glyph-name="&amp;#xab;" unicode="&#xab;" horiz-adv-x="910" d="M816 13 L787 -34 L305 280 L305 325 L779 647 L812 602 L372 303 L816 13 Z M604 10 L574 -38 L94 280 L94 325 L567 653 L601 606 L161 302 L604 10 Z " />
<glyph glyph-name="&amp;#x226a;" unicode="&#x226a;" horiz-adv-x="910" d="M816 13 L787 -34 L305 280 L305 325 L779 647 L812 602 L372 303 L816 13 Z M604 10 L574 -38 L94 280 L94 325 L567 653 L601 606 L161 302 L604 10 Z " />
<glyph glyph-name="&amp;#xbb;" unicode="&#xbb;" horiz-adv-x="910" d="M604 280 L122 -34 L94 13 L538 304 L97 602 L130 647 L604 325 L604 280 Z M816 280 L336 -38 L305 10 L749 302 L309 606 L342 653 L816 325 L816 280 Z " />
<glyph glyph-name="&amp;#x226b;" unicode="&#x226b;" horiz-adv-x="910" d="M604 280 L122 -34 L94 13 L538 304 L97 602 L130 647 L604 325 L604 280 Z M816 280 L336 -38 L305 10 L749 302 L309 606 L342 653 L816 325 L816 280 Z " />
<glyph glyph-name="radical" unicode="&#x221a;" horiz-adv-x="538" d="M324 -124 L288 -124 Q246 -14 206.5 95.5 Q167 205 125 315 L54 282 Q49 291 46.5 299 Q44 307 39 316 L151 362 L303 -53 L304 -53 L514 800 L556 800 L324 -124 Z " />
<glyph glyph-name="uni223D" unicode="&#x223d;" horiz-adv-x="910" d="M829 316 Q829 278 815.5 244 Q802 210 778 184.5 Q754 159 721 143.5 Q688 128 648 128 Q616 128 585.5 139.5 Q555 151 526 171 L560 217 Q581 200 601.5 193.5 Q622 187 648 187 Q674 187 696 197 Q718 207 734 224 Q750 241 759 265 Q768 289 768 316 Q768 340 759.5 363 Q751 386 735 403.5 Q719 421 697.5 432 Q676 443 649 443 Q593 443 555.5 407.5 Q518 372 485 308 Q473 284 455 253.5 Q437 223 410 195 Q383 167 346.5 148 Q310 129 260 129 Q227 129 195 141 Q163 153 137.5 176.5 Q112 200 96.5 235 Q81 270 81 316 Q81 361 96 396 Q111 431 136 454.5 Q161 478 193 490.5 Q225 503 259 503 Q292 503 323 491 Q354 479 382 461 L351 414 Q330 425 308.5 433 Q287 441 266 441 Q210 441 176.5 406 Q143 371 143 316 Q143 259 175 224.5 Q207 190 265 190 Q303 190 331.5 206.5 Q360 223 381 247.5 Q402 272 417 299.5 Q432 327 443 349 Q458 379 477.5 407 Q497 435 522 456 Q547 477 578 490 Q609 503 647 503 Q687 503 720.5 487.5 Q754 472 778 446 Q802 420 815.5 386.5 Q829 353 829 316 Z " />
<glyph glyph-name="proportional" unicode="&#x221d;" horiz-adv-x="910" d="M301 190 Q332 190 357 201.5 Q382 213 401.5 231 Q421 249 435.5 271 Q450 293 461 315 Q450 336 435 358.5 Q420 381 400 399 Q380 417 355.5 429 Q331 441 301 441 Q244 441 211.5 405.5 Q179 370 179 316 Q179 259 210 224.5 Q241 190 301 190 Z M761 411 Q741 425 721 434 Q701 443 681 443 Q625 443 589.5 410 Q554 377 521 315 Q538 283 554.5 259.5 Q571 236 589.5 219.5 Q608 203 630.5 195 Q653 187 681 187 Q699 187 722.5 193 Q746 199 763 209 L778 153 Q752 139 728 133.5 Q704 128 681 128 Q649 128 620.5 139 Q592 150 568 168 Q544 186 524.5 209.5 Q505 233 490 257 Q477 234 461 211.5 Q445 189 423 170.5 Q401 152 371.5 140.5 Q342 129 302 129 Q268 129 234.5 141 Q201 153 174 176 Q147 199 130.5 234 Q114 269 114 316 Q114 361 130.5 396 Q147 431 173 454.5 Q199 478 232.5 490.5 Q266 503 301 503 Q339 503 368 491 Q397 479 419.5 460.5 Q442 442 459 418.5 Q476 395 490 372 Q505 399 524 423 Q543 447 566.5 464.5 Q590 482 618.5 492.5 Q647 503 681 503 Q710 503 738.5 491.5 Q767 480 795 460 L761 411 Z " />
<glyph glyph-name="uni2235" unicode="&#x2235;" horiz-adv-x="586" d="M54 504 Q54 526 67.5 539.5 Q81 553 103 553 Q121 553 136 539.5 Q151 526 151 504 Q151 483 136 470 Q121 457 103 457 Q81 457 67.5 470 Q54 483 54 504 Z M450 504 Q450 526 463 539.5 Q476 553 498 553 Q516 553 531.5 539.5 Q547 526 547 504 Q547 483 531.5 470 Q516 457 498 457 Q476 457 463 470 Q450 483 450 504 Z M251 94 Q251 112 265 128 Q279 144 300 144 Q319 144 333.5 128 Q348 112 348 94 Q348 73 333.5 60 Q319 47 300 47 Q279 47 265 60 Q251 73 251 94 Z " />
<glyph glyph-name="integral" unicode="&#x222b;" horiz-adv-x="288" d="M135 79 Q135 131 133.5 194.5 Q132 258 130.5 324 Q129 390 127.5 453.5 Q126 517 126 568 Q126 684 159 734 Q192 784 251 784 Q263 784 272 782 Q281 780 288 777 L279 740 Q274 742 267.5 743 Q261 744 254 744 Q234 744 218.5 735.5 Q203 727 192.5 706.5 Q182 686 176.5 652 Q171 618 171 566 Q171 513 172.5 449 Q174 385 176 320 Q178 255 179.5 192 Q181 129 181 77 Q181 -39 148.5 -89 Q116 -139 56 -139 Q33 -139 17 -132 L26 -95 Q31 -97 38.5 -98 Q46 -99 53 -99 Q73 -99 88.5 -90.5 Q104 -82 114.5 -61.5 Q125 -41 130 -7 Q135 27 135 79 Z " />
<glyph glyph-name="uni222C" unicode="&#x222c;" horiz-adv-x="487" d="M135 79 Q135 131 133.5 194.5 Q132 258 130.5 324 Q129 390 127.5 453.5 Q126 517 126 568 Q126 684 159 734 Q192 784 251 784 Q263 784 272 782 Q281 780 288 777 L279 740 Q274 742 267.5 743 Q261 744 254 744 Q234 744 218.5 735.5 Q203 727 192.5 706.5 Q182 686 176.5 652 Q171 618 171 566 Q171 513 172.5 449 Q174 385 176 320 Q178 255 179.5 192 Q181 129 181 77 Q181 -39 148.5 -89 Q116 -139 56 -139 Q33 -139 17 -132 L26 -95 Q31 -97 38.5 -98 Q46 -99 53 -99 Q73 -99 88.5 -90.5 Q104 -82 114.5 -61.5 Q125 -41 130 -7 Q135 27 135 79 Z M354 79 Q354 131 352.5 194.5 Q351 258 349.5 324 Q348 390 346.5 453.5 Q345 517 345 568 Q345 684 378 734 Q411 784 470 784 Q482 784 491 782 Q500 780 507 777 L498 740 Q493 742 486.5 743 Q480 744 473 744 Q453 744 437.5 735.5 Q422 727 411.5 706.5 Q401 686 395.5 652 Q390 618 390 566 Q390 513 391.5 449 Q393 385 395 320 Q397 255 398.5 192 Q400 129 400 77 Q400 -39 367.5 -89 Q335 -139 275 -139 Q252 -139 236 -132 L245 -95 Q250 -97 257.5 -98 Q265 -99 272 -99 Q292 -99 307.5 -90.5 Q323 -82 333.5 -61.5 Q344 -41 349 -7 Q354 27 354 79 Z " />
<glyph glyph-name="element" unicode="&#x2208;" horiz-adv-x="910" d="M795 304 L163 304 Q166 267 181 235.5 Q196 204 223.5 181.5 Q251 159 292.5 146.5 Q334 134 391 134 L797 134 L797 87 L397 87 Q323 87 269.5 106 Q216 125 181 157.5 Q146 190 129 234 Q112 278 112 329 Q112 376 128 417.5 Q144 459 177.5 489.5 Q211 520 264 538 Q317 556 391 556 L797 556 L797 509 L391 509 Q334 509 292.5 496.5 Q251 484 224 463 Q197 442 182.5 413 Q168 384 164 351 L795 351 L795 304 Z " />
<glyph glyph-name="suchthat" unicode="&#x220b;" horiz-adv-x="910" d="M114 351 L744 351 Q741 384 726.5 413 Q712 442 685 463.5 Q658 485 616.5 497.5 Q575 510 517 510 L112 510 L112 556 L517 556 Q591 556 644 538 Q697 520 731 489.5 Q765 459 781 417.5 Q797 376 797 329 Q797 278 780 234 Q763 190 728 157 Q693 124 639 105.5 Q585 87 512 87 L112 87 L112 133 L517 133 Q575 133 616.5 145.5 Q658 158 685.5 181 Q713 204 727.5 235 Q742 266 745 304 L114 304 L114 351 Z " />
<glyph glyph-name="reflexsubset" unicode="&#x2286;" horiz-adv-x="910" d="M797 573 L391 573 Q328 573 284.5 559 Q241 545 213.5 521 Q186 497 174 464.5 Q162 432 162 395 Q162 354 175 319 Q188 284 215.5 259 Q243 234 286.5 220 Q330 206 391 206 L797 206 L797 160 L397 160 Q323 160 269.5 178 Q216 196 181 227.5 Q146 259 129 302 Q112 345 112 395 Q112 442 128 483 Q144 524 177.5 554 Q211 584 264 601.5 Q317 619 391 619 L797 619 L797 573 Z M795 1 L150 1 L150 47 L795 47 L795 1 Z " />
<glyph glyph-name="reflexsuperset" unicode="&#x2287;" horiz-adv-x="910" d="M112 619 L518 619 Q592 619 645 601.5 Q698 584 731.5 554 Q765 524 781 483 Q797 442 797 395 Q797 345 780 302 Q763 259 728 227.5 Q693 196 639 178 Q585 160 512 160 L112 160 L112 206 L518 206 Q579 206 622.5 220 Q666 234 693.5 259 Q721 284 734 319 Q747 354 747 395 Q747 432 735 464.5 Q723 497 695.5 521 Q668 545 624.5 559 Q581 573 518 573 L112 573 L112 619 Z M114 47 L759 47 L759 1 L114 1 L114 47 Z " />
<glyph glyph-name="propersubset" unicode="&#x2282;" horiz-adv-x="910" d="M797 503 L391 503 Q328 503 284.5 488 Q241 473 214 447.5 Q187 422 175 388 Q163 354 163 316 Q163 274 175.5 238 Q188 202 215.5 176 Q243 150 286.5 135 Q330 120 391 120 L797 120 L797 74 L397 74 Q323 74 269.5 93 Q216 112 181 145.5 Q146 179 129 223.5 Q112 268 112 319 Q112 366 128 408 Q144 450 177.5 481.5 Q211 513 264 531 Q317 549 391 549 L797 549 L797 503 Z " />
<glyph glyph-name="propersuperset" unicode="&#x2283;" horiz-adv-x="910" d="M112 569 L517 569 Q591 569 644 551 Q697 533 731 501.5 Q765 470 781 428 Q797 386 797 339 Q797 288 780 243.5 Q763 199 728 165.5 Q693 132 639 113 Q585 94 512 94 L112 94 L112 140 L517 140 Q578 140 621.5 155 Q665 170 693 196 Q721 222 733.5 258 Q746 294 746 336 Q746 374 734 408 Q722 442 694.5 467.5 Q667 493 623.5 508 Q580 523 517 523 L112 523 L112 569 Z " />
<glyph glyph-name="union" unicode="&#x222a;" horiz-adv-x="910" d="M264 634 L264 229 Q264 166 279 121.5 Q294 77 319.5 49 Q345 21 379 8.5 Q413 -4 451 -4 Q493 -4 529 9.5 Q565 23 591 51 Q617 79 632 123 Q647 167 647 229 L647 634 L697 634 L697 234 Q697 160 677 106.5 Q657 53 623.5 18 Q590 -17 544.5 -34 Q499 -51 448 -51 Q401 -51 358.5 -35 Q316 -19 284 15 Q252 49 233 102 Q214 155 214 229 L214 634 L264 634 Z " />
<glyph glyph-name="intersection" unicode="&#x2229;" horiz-adv-x="910" d="M455 634 Q506 634 550.5 617 Q595 600 627 565 Q659 530 677.5 476 Q696 422 696 349 L696 -51 L646 -51 L646 354 Q646 415 632 460 Q618 505 592.5 533.5 Q567 562 532 576 Q497 590 455 590 Q413 590 378.5 576 Q344 562 318.5 533.5 Q293 505 279 460 Q265 415 265 354 L265 -51 L215 -51 L215 349 Q215 422 233.5 476 Q252 530 284 565 Q316 600 360 617 Q404 634 455 634 Z " />
<glyph glyph-name="logicaland" unicode="&#x2227;" horiz-adv-x="910" d="M776 21 L725 -3 L455 523 L186 -3 L135 21 L429 591 L482 591 L776 21 Z " />
<glyph glyph-name="logicalor" unicode="&#x2228;" horiz-adv-x="910" d="M482 3 L429 3 L135 573 L186 597 L455 71 L725 597 L776 573 L482 3 Z " />
<glyph glyph-name="&amp;#xac;" unicode="&#xac;" horiz-adv-x="910" d="M884 -156 L828 -156 L828 102 L27 102 L27 155 L884 155 L884 -156 Z " />
<glyph glyph-name="&amp;#xffe2;" unicode="&#xffe2;" horiz-adv-x="910" d="M884 -156 L828 -156 L828 102 L27 102 L27 155 L884 155 L884 -156 Z " />
<glyph glyph-name="arrowdblright" unicode="&#x21d2;" horiz-adv-x="910" d="M900 301 L651 51 L624 77 L742 194 L10 194 L10 230 L777 230 L849 301 L777 373 L10 373 L10 409 L741 409 L624 523 L651 550 L900 301 Z " />
<glyph glyph-name="arrowdblboth" unicode="&#x21d4;" horiz-adv-x="910" d="M901 301 L653 51 L625 77 L743 194 L165 194 L283 77 L255 51 L7 301 L255 550 L283 523 L166 409 L742 409 L625 523 L653 550 L901 301 Z M850 301 L778 373 L130 373 L58 301 L130 230 L778 230 L850 301 Z " />
<glyph glyph-name="universal" unicode="&#x2200;" horiz-adv-x="910" d="M202 695 L291 461 L621 461 L708 695 L754 695 L478 -26 L436 -26 L157 695 L202 695 Z M607 424 L305 424 L394 190 Q411 146 428 102 Q445 58 457 20 Q470 58 487.5 102 Q505 146 521 190 L607 424 Z " />
<glyph glyph-name="existential" unicode="&#x2203;" horiz-adv-x="910" d="M669 695 L669 -26 L241 -26 L241 15 L625 15 L625 324 L269 324 L269 364 L625 364 L625 654 L248 654 L248 695 L669 695 Z " />
<glyph glyph-name="acute" unicode="&#xb4;" horiz-adv-x="590" d="M220 571 L321 705 L373 705 L261 571 L220 571 Z " />
<glyph glyph-name="tilde" unicode="&#x2dc;" horiz-adv-x="590" d="M161 595 Q167 633 188.5 652.5 Q210 672 236 672 Q255 672 270.5 665.5 Q286 659 300.5 651 Q315 643 328 636.5 Q341 630 355 630 Q378 630 388 641.5 Q398 653 400 672 L430 672 Q425 634 403.5 614.5 Q382 595 355 595 Q336 595 320.5 601.5 Q305 608 290.5 616 Q276 624 263 630.5 Q250 637 236 637 Q221 637 209 625 Q197 613 193 595 L161 595 Z " />
<glyph glyph-name="caron" unicode="&#x2c7;" horiz-adv-x="590" d="M178 696 L216 696 L297 600 L373 696 L413 696 L314 566 L275 566 L178 696 Z " />
<glyph glyph-name="breve" unicode="&#x2d8;" horiz-adv-x="590" d="M295 559 Q242 559 207.5 592.5 Q173 626 171 680 L206 680 Q210 642 235 621 Q260 600 295 600 Q331 600 355 621 Q379 642 384 680 L419 680 Q417 626 382 592.5 Q347 559 295 559 Z " />
<glyph glyph-name="hungarumlaut" unicode="&#x2dd;" horiz-adv-x="590" d="M238 709 L284 709 L219 576 L182 576 L238 709 Z M364 709 L411 709 L346 576 L307 576 L364 709 Z " />
<glyph glyph-name="ring" unicode="&#x2da;" horiz-adv-x="590" d="M296 564 Q255 564 231.5 590 Q208 616 208 651 Q208 683 231.5 708.5 Q255 734 296 734 Q315 734 331 727 Q347 720 358.5 708.5 Q370 697 376.5 682 Q383 667 383 651 Q383 616 358.5 590 Q334 564 296 564 Z M296 595 Q319 595 331.5 611.5 Q344 628 344 651 Q344 672 331.5 686 Q319 700 296 700 Q271 700 258 686 Q245 672 245 651 Q245 628 258 611.5 Q271 595 296 595 Z " />
<glyph glyph-name="dotaccent" unicode="&#x2d9;" horiz-adv-x="590" d="M268 662 L322 662 L322 602 L268 602 L268 662 Z " />
<glyph glyph-name="cedilla" unicode="&#xb8;" horiz-adv-x="590" d="M217 -160 Q277 -155 304.5 -144 Q332 -133 332 -108 Q332 -85 310.5 -78.5 Q289 -72 239 -72 L239 5 L277 5 L277 -41 Q297 -42 315 -45 Q333 -48 346 -55 Q359 -62 366.5 -73.5 Q374 -85 374 -102 Q374 -144 338.5 -166.5 Q303 -189 217 -194 L217 -160 Z " />
<glyph glyph-name="ogonek" unicode="&#x2db;" horiz-adv-x="590" d="M326 -192 Q278 -192 251.5 -174.5 Q225 -157 225 -122 Q225 -103 232.5 -87 Q240 -71 252 -57.5 Q264 -44 279 -33 Q294 -22 309 -14 L351 -14 Q313 -41 289.5 -62.5 Q266 -84 266 -117 Q266 -140 282 -151 Q298 -162 325 -162 Q340 -162 351.5 -160 Q363 -158 374 -154 L374 -184 Q366 -187 353.5 -189.5 Q341 -192 326 -192 Z " />
<glyph glyph-name="exclamdown" unicode="&#xa1;" horiz-adv-x="260" d="M165 622 L95 622 L95 706 L165 706 L165 622 Z M148 511 L156 -49 L104 -49 L112 511 L148 511 Z " />
<glyph glyph-name="questiondown" unicode="&#xbf;" horiz-adv-x="498" d="M298 515 L298 467 Q298 432 283.5 403.5 Q269 375 246.5 350.5 Q224 326 198.5 303.5 Q173 281 150.5 257 Q128 233 113.5 206.5 Q99 180 99 148 L99 129 Q99 94 112 68.5 Q125 43 146.5 26 Q168 9 196.5 0.5 Q225 -8 256 -8 Q310 -8 351.5 12 Q393 32 430 71 L459 42 Q444 26 424 9.5 Q404 -7 378.5 -20 Q353 -33 323 -41.5 Q293 -50 258 -50 Q164 -50 109.5 -2 Q55 46 55 128 L55 148 Q55 186 70 216 Q85 246 107 271.5 Q129 297 155.5 319 Q182 341 204 364 Q226 387 241 412.5 Q256 438 256 470 L256 515 L298 515 Z M312 622 L242 622 L242 706 L312 706 L312 622 Z " />
<glyph glyph-name="&amp;#x2d0;" unicode="&#x2d0;" horiz-adv-x="910" d="M533 75 L378 75 L454 169 L533 75 Z M533 541 L454 446 L378 541 L533 541 Z " />
<glyph glyph-name="&amp;#x2236;" unicode="&#x2236;" horiz-adv-x="910" d="M533 75 L378 75 L454 169 L533 75 Z M533 541 L454 446 L378 541 L533 541 Z " />
<glyph glyph-name="uni222E" unicode="&#x222e;" horiz-adv-x="910" d="M617 628 Q609 647 596.5 657.5 Q584 668 567 668 Q545 668 525 609.5 Q505 551 493 444 Q518 441 540.5 431 Q563 421 579.5 404.5 Q596 388 605.5 365 Q615 342 615 313 Q615 278 603 250.5 Q591 223 571.5 203 Q552 183 526.5 171 Q501 159 474 155 Q467 99 456 50.5 Q445 2 428.5 -34 Q412 -70 389.5 -91 Q367 -112 338 -112 Q277 -112 246 -53 L290 -27 Q299 -46 311.5 -57 Q324 -68 341 -68 Q363 -68 383.5 -10 Q404 48 415 156 Q368 164 335 196 Q302 228 302 284 Q302 317 313 344 Q324 371 342 390.5 Q360 410 383.5 422.5 Q407 435 433 441 Q440 497 451.5 546.5 Q463 596 479.5 632.5 Q496 669 518.5 690.5 Q541 712 570 712 Q632 712 664 649 L617 628 Z M566 311 Q566 349 546 377.5 Q526 406 490 414 Q488 388 486.5 359 Q485 330 484 300 Q483 270 481.5 240.5 Q480 211 477 185 Q514 194 538 224 Q562 254 566 299 L566 311 Z M430 410 Q395 397 373 364.5 Q351 332 351 285 Q351 247 369 221 Q387 195 418 186 Q423 236 424 296.5 Q425 357 430 410 Z " />
<glyph glyph-name="summation" unicode="&#x2211;" horiz-adv-x="587" d="M510 695 L510 656 L152 656 L365 332 L147 13 L517 13 L517 -26 L96 -26 L96 4 L317 331 L96 668 L96 695 L510 695 Z " />
<glyph glyph-name="product" unicode="&#x220f;" horiz-adv-x="621" d="M473 658 L473 -20 L432 -20 L432 658 L189 658 L189 -20 L148 -20 L148 658 L36 658 L36 695 L585 695 L585 658 L473 658 Z " />
<glyph glyph-name="currency" unicode="&#xa4;" horiz-adv-x="910" d="M224 144 Q198 179 183.5 222 Q169 265 169 314 Q169 362 183.5 405.5 Q198 449 224 484 L114 583 L138 610 L248 511 Q287 551 339.5 573.5 Q392 596 453 596 Q515 596 568 573 Q621 550 660 509 L772 610 L796 583 L683 482 Q709 447 723.5 404.5 Q738 362 738 314 Q738 266 723.5 223.5 Q709 181 683 146 L796 46 L772 19 L660 119 Q621 78 568 55.5 Q515 33 453 33 Q391 33 338.5 55.5 Q286 78 248 117 L138 19 L114 46 L224 144 Z M204 314 Q204 261 223 215 Q242 169 275.5 135 Q309 101 354.5 82 Q400 63 453 63 Q506 63 552 82 Q598 101 631.5 135 Q665 169 684 215 Q703 261 703 314 Q703 367 684 413 Q665 459 631.5 493 Q598 527 552 546.5 Q506 566 453 566 Q400 566 354.5 546.5 Q309 527 275.5 493 Q242 459 223 413 Q204 367 204 314 Z " />
<glyph glyph-name="uni2109" unicode="&#x2109;" horiz-adv-x="815" d="M155 565 Q182 565 196.5 581 Q211 597 211 623 Q211 648 196.5 664 Q182 680 155 680 Q128 680 113.5 664 Q99 648 99 623 Q99 597 113.5 581 Q128 565 155 565 Z M738 695 L738 654 L370 654 L370 345 L717 345 L717 305 L370 305 L370 -26 L326 -26 L326 695 L738 695 Z M155 535 Q113 535 89.5 560 Q66 585 66 622 Q66 659 89.5 684 Q113 709 155 709 Q197 709 220.5 684 Q244 659 244 622 Q244 585 220.5 560 Q197 535 155 535 Z " />
<glyph glyph-name="perthousand" unicode="&#x2030;" horiz-adv-x="1195" d="M182 -25 L619 695 L662 695 L226 -25 L182 -25 Z M220 700 Q291 700 330.5 658 Q370 616 370 537 L370 489 Q370 410 330.5 368 Q291 326 220 326 Q149 326 109.5 368 Q70 410 70 489 L70 537 Q70 616 109.5 658 Q149 700 220 700 Z M220 363 Q242 363 262 369 Q282 375 297 390 Q312 405 321 429.5 Q330 454 330 491 L330 535 Q330 572 321 596.5 Q312 621 297 636 Q282 651 262 657 Q242 663 220 663 Q198 663 178 657 Q158 651 143 636 Q128 621 119 596.5 Q110 572 110 535 L110 491 Q110 454 119 429.5 Q128 405 143 390 Q158 375 178 369 Q198 363 220 363 Z M622 340 Q693 340 732.5 298 Q772 256 772 177 L772 129 Q772 50 732.5 8 Q693 -34 622 -34 Q551 -34 511.5 8 Q472 50 472 129 L472 177 Q472 256 511.5 298 Q551 340 622 340 Z M622 3 Q644 3 664 9 Q684 15 699 30 Q714 45 723 69.5 Q732 94 732 131 L732 175 Q732 212 723 236.5 Q714 261 699 276 Q684 291 664 297 Q644 303 622 303 Q600 303 580 297 Q560 291 545 276 Q530 261 521 236.5 Q512 212 512 175 L512 131 Q512 94 521 69.5 Q530 45 545 30 Q560 15 580 9 Q600 3 622 3 Z M975 340 Q1046 340 1085.5 298 Q1125 256 1125 177 L1125 129 Q1125 50 1085.5 8 Q1046 -34 975 -34 Q904 -34 864.5 8 Q825 50 825 129 L825 177 Q825 256 864.5 298 Q904 340 975 340 Z M975 3 Q997 3 1017 9 Q1037 15 1052 30 Q1067 45 1076 69.5 Q1085 94 1085 131 L1085 175 Q1085 212 1076 236.5 Q1067 261 1052 276 Q1037 291 1017 297 Q997 303 975 303 Q953 303 933 297 Q913 291 898 276 Q883 261 874 236.5 Q865 212 865 175 L865 131 Q865 94 874 69.5 Q883 45 898 30 Q913 15 933 9 Q953 3 975 3 Z " />
<glyph glyph-name="uni25C1" unicode="&#x25c1;" horiz-adv-x="910" d="M746 -51 L746 653 L185 300 L746 -51 Z M761 -84 L149 300 L761 686 L761 -84 Z " />
<glyph glyph-name="uni25C0" unicode="&#x25c0;" horiz-adv-x="910" d="M761 -84 L149 300 L761 686 L761 -84 Z " />
<glyph glyph-name="uni25B7" unicode="&#x25b7;" horiz-adv-x="910" d="M726 300 L165 653 L165 -51 L726 300 Z M761 300 L149 -84 L149 686 L761 300 Z " />
<glyph glyph-name="uni25B6" unicode="&#x25b6;" horiz-adv-x="910" d="M761 300 L149 -84 L149 686 L761 300 Z " />
<glyph glyph-name="uni2664" unicode="&#x2664;" horiz-adv-x="910" d="M752 201 Q752 241 723 299 Q694 357 649.5 422.5 Q605 488 553 554 Q501 620 455 676 Q409 620 357 554 Q305 488 260.5 422.5 Q216 357 187 299 Q158 241 158 201 Q158 182 163.5 161 Q169 140 181 122 Q193 104 212 92 Q231 80 258 80 Q281 80 302 88 Q323 96 341 105.5 Q359 115 373 123 Q387 131 396 131 Q418 131 420 122.5 Q422 114 420 89 Q418 54 408 15 Q398 -24 383 -72 Q381 -82 388.5 -86.5 Q396 -91 409 -92 Q419 -93 431.5 -93.5 Q444 -94 455 -94 Q467 -94 479.5 -93.5 Q492 -93 501 -92 Q514 -91 521 -86.5 Q528 -82 526 -72 Q511 -24 501.5 15 Q492 54 490 89 Q487 115 490 123 Q493 131 514 131 Q523 131 537.5 123 Q552 115 570 105.5 Q588 96 609 88 Q630 80 653 80 Q680 80 699 92 Q718 104 729.5 122 Q741 140 746.5 161 Q752 182 752 201 Z M779 202 Q779 170 769 142.5 Q759 115 741 95 Q723 75 697.5 64 Q672 53 641 53 Q612 53 585 65.5 Q558 78 520 99 Q521 81 525.5 56.5 Q530 32 536.5 6.5 Q543 -19 552 -43.5 Q561 -68 571 -87 Q580 -106 557 -109 Q537 -111 509 -112.5 Q481 -114 455 -114 Q426 -114 400 -112.5 Q374 -111 353 -109 Q330 -106 339 -87 Q349 -66 357.5 -41.5 Q366 -17 373 7.5 Q380 32 384.5 55.5 Q389 79 391 99 Q353 78 325.5 65.5 Q298 53 269 53 Q206 53 169 95 Q132 137 132 202 Q132 245 161.5 304.5 Q191 364 237.5 432.5 Q284 501 341.5 573.5 Q399 646 455 717 Q512 646 569.5 573.5 Q627 501 673.5 432.5 Q720 364 749.5 304.5 Q779 245 779 202 Z " />
<glyph glyph-name="spade" unicode="&#x2660;" horiz-adv-x="910" d="M779 202 Q779 170 769 142.5 Q759 115 741 95 Q723 75 697.5 64 Q672 53 641 53 Q612 53 585 65.5 Q558 78 520 99 Q521 81 525.5 56.5 Q530 32 536.5 6.5 Q543 -19 552 -43.5 Q561 -68 571 -87 Q580 -106 557 -109 Q537 -111 509 -112.5 Q481 -114 455 -114 Q426 -114 400 -112.5 Q374 -111 353 -109 Q330 -106 339 -87 Q349 -66 357.5 -41.5 Q366 -17 373 7.5 Q380 32 384.5 55.5 Q389 79 391 99 Q353 78 325.5 65.5 Q298 53 269 53 Q206 53 169 95 Q132 137 132 202 Q132 245 161.5 304.5 Q191 364 237.5 432.5 Q284 501 341.5 573.5 Q399 646 455 717 Q512 646 569.5 573.5 Q627 501 673.5 432.5 Q720 364 749.5 304.5 Q779 245 779 202 Z " />
<glyph glyph-name="uni2661" unicode="&#x2661;" horiz-adv-x="910" d="M776 479 Q776 513 765 544 Q754 575 733 598 Q712 621 682.5 634.5 Q653 648 616 648 Q591 648 569.5 635.5 Q548 623 530.5 603.5 Q513 584 500.5 561 Q488 538 482 517 Q479 508 478 499 Q477 490 475 483 Q473 476 468.5 471.5 Q464 467 455 467 Q437 467 433.5 482 Q430 497 425 517 Q420 535 408 558 Q396 581 379 601 Q362 621 340.5 634.5 Q319 648 294 648 Q260 648 231 634.5 Q202 621 180.5 598 Q159 575 147 544.5 Q135 514 135 479 Q135 417 166 346 Q197 275 244.5 204 Q292 133 348 67 Q404 1 455 -51 Q506 1 562.5 67 Q619 133 666.5 204 Q714 275 745 346 Q776 417 776 479 Z M802 475 Q802 404 768 326.5 Q734 249 682 173.5 Q630 98 569.5 30 Q509 -38 455 -90 Q402 -38 341 30 Q280 98 228.5 173.5 Q177 249 143 326.5 Q109 404 109 475 Q109 517 122.5 552.5 Q136 588 160 614 Q184 640 216 654.5 Q248 669 284 669 Q347 669 390.5 628 Q434 587 455 491 Q477 587 520 628 Q563 669 627 669 Q663 669 695 654.5 Q727 640 751 614 Q775 588 788.5 552.5 Q802 517 802 475 Z " />
<glyph glyph-name="heart" unicode="&#x2665;" horiz-adv-x="910" d="M802 475 Q802 404 768 326.5 Q734 249 682 173.5 Q630 98 569.5 30 Q509 -38 455 -90 Q402 -38 341 30 Q280 98 228.5 173.5 Q177 249 143 326.5 Q109 404 109 475 Q109 517 122.5 552.5 Q136 588 160 614 Q184 640 216 654.5 Q248 669 284 669 Q347 669 390.5 628 Q434 587 455 491 Q477 587 520 628 Q563 669 627 669 Q663 669 695 654.5 Q727 640 751 614 Q775 588 788.5 552.5 Q802 517 802 475 Z " />
<glyph glyph-name="uni2667" unicode="&#x2667;" horiz-adv-x="910" d="M815 210 Q815 235 807 261.5 Q799 288 784 310 Q769 332 747 346 Q725 360 697 360 Q670 360 647.5 350.5 Q625 341 606 329.5 Q587 318 571.5 308.5 Q556 299 541 299 Q515 299 501.5 315.5 Q488 332 488 358 Q488 382 505.5 397.5 Q523 413 544 432.5 Q565 452 582.5 480.5 Q600 509 600 559 Q600 588 587 610.5 Q574 633 553.5 649 Q533 665 507 673 Q481 681 455 681 Q430 681 404 673 Q378 665 357 649 Q336 633 323 610.5 Q310 588 310 559 Q310 509 327.5 480.5 Q345 452 366.5 432.5 Q388 413 405.5 397.5 Q423 382 423 358 Q423 332 409 315.5 Q395 299 369 299 Q354 299 338.5 308.5 Q323 318 304.5 329.5 Q286 341 263.5 350.5 Q241 360 214 360 Q186 360 164 346 Q142 332 126.5 310 Q111 288 103 261.5 Q95 235 95 210 Q95 183 103 156 Q111 129 127 107.5 Q143 86 166 73 Q189 60 219 60 Q259 60 287 75.5 Q315 91 335 109 Q355 127 371 142.5 Q387 158 405 158 Q417 158 420 151.5 Q423 145 423 133 Q423 111 418 91.5 Q413 72 407 49.5 Q401 27 396 -2 Q391 -31 391 -71 Q391 -79 397.5 -82.5 Q404 -86 414 -87 Q424 -88 435 -88 Q446 -88 455 -88 Q464 -88 475.5 -88 Q487 -88 497 -87 Q507 -86 513.5 -82.5 Q520 -79 520 -71 Q520 -31 515 -2 Q510 27 503.5 49.5 Q497 72 492 91.5 Q487 111 487 133 Q487 145 490 151.5 Q493 158 505 158 Q522 158 538.5 142.5 Q555 127 575.5 109 Q596 91 624 75.5 Q652 60 692 60 Q722 60 745 73 Q768 86 783.5 107.5 Q799 129 807 156 Q815 183 815 210 Z M850 212 Q850 176 838 142.5 Q826 109 804 83.5 Q782 58 751 43 Q720 28 682 28 Q656 28 632 36 Q608 44 588 56.5 Q568 69 551.5 83 Q535 97 524 109 Q531 92 537.5 69 Q544 46 549.5 19 Q555 -8 558.5 -36.5 Q562 -65 562 -92 Q562 -109 532.5 -110 Q503 -111 455 -111 Q444 -111 425.5 -111.5 Q407 -112 390 -111 Q373 -110 360.5 -105.5 Q348 -101 348 -92 Q348 -65 351 -36.5 Q354 -8 359.5 19 Q365 46 372 69 Q379 92 387 109 Q376 97 359.5 83 Q343 69 322.5 56.5 Q302 44 278.5 36 Q255 28 229 28 Q191 28 159.5 43 Q128 58 106 83.5 Q84 109 72 142.5 Q60 176 60 212 Q60 246 72.5 278 Q85 310 106.5 335 Q128 360 158 374.5 Q188 389 224 389 Q256 389 285.5 378 Q315 367 344 353 Q350 350 358 350 Q367 350 371.5 354.5 Q376 359 376 365 Q376 370 372.5 375 Q369 380 365 384 Q341 405 324.5 423.5 Q308 442 297 461 Q286 480 281 501.5 Q276 523 276 550 Q276 587 290.5 616.5 Q305 646 330 667 Q355 688 387.5 699 Q420 710 455 710 Q490 710 522.5 699 Q555 688 579.5 667 Q604 646 619 616.5 Q634 587 634 550 Q634 523 629 501.5 Q624 480 613.5 461 Q603 442 586 423.5 Q569 405 545 384 Q541 380 537.5 375 Q534 370 534 365 Q534 359 538.5 354.5 Q543 350 552 350 Q558 350 566 353 Q595 367 624.5 378 Q654 389 687 389 Q723 389 752.5 374.5 Q782 360 804 335 Q826 310 838 278 Q850 246 850 212 Z " />
<glyph glyph-name="club" unicode="&#x2663;" horiz-adv-x="910" d="M850 212 Q850 176 838 142.5 Q826 109 804 83.5 Q782 58 751 43 Q720 28 682 28 Q656 28 632 36 Q608 44 588 56.5 Q568 69 551.5 83 Q535 97 524 109 Q531 92 537.5 69 Q544 46 549.5 19 Q555 -8 558.5 -36.5 Q562 -65 562 -92 Q562 -109 532.5 -110 Q503 -111 455 -111 Q444 -111 425.5 -111.5 Q407 -112 390 -111 Q373 -110 360.5 -105.5 Q348 -101 348 -92 Q348 -65 351 -36.5 Q354 -8 359.5 19 Q365 46 372 69 Q379 92 387 109 Q376 97 359.5 83 Q343 69 322.5 56.5 Q302 44 278.5 36 Q255 28 229 28 Q191 28 159.5 43 Q128 58 106 83.5 Q84 109 72 142.5 Q60 176 60 212 Q60 246 72.5 278 Q85 310 106.5 335 Q128 360 158 374.5 Q188 389 224 389 Q256 389 285.5 378 Q315 367 344 353 Q350 350 358 350 Q367 350 371.5 354.5 Q376 359 376 365 Q376 370 372.5 375 Q369 380 365 384 Q341 405 324.5 423.5 Q308 442 297 461 Q286 480 281 501.5 Q276 523 276 550 Q276 587 290.5 616.5 Q305 646 330 667 Q355 688 387.5 699 Q420 710 455 710 Q490 710 522.5 699 Q555 688 579.5 667 Q604 646 619 616.5 Q634 587 634 550 Q634 523 629 501.5 Q624 480 613.5 461 Q603 442 586 423.5 Q569 405 545 384 Q541 380 537.5 375 Q534 370 534 365 Q534 359 538.5 354.5 Q543 350 552 350 Q558 350 566 353 Q595 367 624.5 378 Q654 389 687 389 Q723 389 752.5 374.5 Q782 360 804 335 Q826 310 838 278 Q850 246 850 212 Z " />
<glyph glyph-name="&amp;#x2299;" unicode="&#x2299;" horiz-adv-x="910" d="M610 299 Q610 267 598 238.5 Q586 210 565 189 Q544 168 515.5 156 Q487 144 455 144 Q423 144 395 156 Q367 168 346 189 Q325 210 312.5 238.5 Q300 267 300 299 Q300 331 312.5 359.5 Q325 388 346 409 Q367 430 395 442 Q423 454 455 454 Q487 454 515.5 442 Q544 430 565 409 Q586 388 598 359.5 Q610 331 610 299 Z M819 299 Q819 374 790 440 Q761 506 711.5 555.5 Q662 605 596 634 Q530 663 455 663 Q381 663 315 634 Q249 605 199.5 555.5 Q150 506 121.5 440 Q93 374 93 299 Q93 225 121.5 159 Q150 93 199.5 43.5 Q249 -6 315 -34.5 Q381 -63 455 -63 Q530 -63 596 -34.5 Q662 -6 711.5 43.5 Q761 93 790 159 Q819 225 819 299 Z M841 299 Q841 219 811 148.5 Q781 78 728.5 25.5 Q676 -27 605.5 -57 Q535 -87 455 -87 Q376 -87 305.5 -57 Q235 -27 182.5 25.5 Q130 78 99.5 148.5 Q69 219 69 299 Q69 379 99.5 449.5 Q130 520 182.5 572.5 Q235 625 305.5 655 Q376 685 455 685 Q535 685 605.5 655 Q676 625 728.5 572.5 Q781 520 811 449.5 Q841 379 841 299 Z " />
<glyph glyph-name="&amp;#x25c9;" unicode="&#x25c9;" horiz-adv-x="910" d="M610 299 Q610 267 598 238.5 Q586 210 565 189 Q544 168 515.5 156 Q487 144 455 144 Q423 144 395 156 Q367 168 346 189 Q325 210 312.5 238.5 Q300 267 300 299 Q300 331 312.5 359.5 Q325 388 346 409 Q367 430 395 442 Q423 454 455 454 Q487 454 515.5 442 Q544 430 565 409 Q586 388 598 359.5 Q610 331 610 299 Z M819 299 Q819 374 790 440 Q761 506 711.5 555.5 Q662 605 596 634 Q530 663 455 663 Q381 663 315 634 Q249 605 199.5 555.5 Q150 506 121.5 440 Q93 374 93 299 Q93 225 121.5 159 Q150 93 199.5 43.5 Q249 -6 315 -34.5 Q381 -63 455 -63 Q530 -63 596 -34.5 Q662 -6 711.5 43.5 Q761 93 790 159 Q819 225 819 299 Z M841 299 Q841 219 811 148.5 Q781 78 728.5 25.5 Q676 -27 605.5 -57 Q535 -87 455 -87 Q376 -87 305.5 -57 Q235 -27 182.5 25.5 Q130 78 99.5 148.5 Q69 219 69 299 Q69 379 99.5 449.5 Q130 520 182.5 572.5 Q235 625 305.5 655 Q376 685 455 685 Q535 685 605.5 655 Q676 625 728.5 572.5 Q781 520 811 449.5 Q841 379 841 299 Z " />
<glyph glyph-name="uni25C8" unicode="&#x25c8;" horiz-adv-x="910" d="M726 297 L455 27 L184 297 L455 568 L726 297 Z M843 298 L455 685 L66 297 L454 -91 L843 298 Z M885 298 L454 -131 L26 297 L455 728 L885 298 Z " />
<glyph glyph-name="uni25A3" unicode="&#x25a3;" horiz-adv-x="910" d="M688 65 L223 65 L223 530 L688 530 L688 65 Z M793 -39 L793 635 L118 635 L118 -39 L793 -39 Z M824 -70 L87 -70 L87 666 L824 666 L824 -70 Z " />
<glyph glyph-name="uni25D0" unicode="&#x25d0;" horiz-adv-x="910" d="M806 299 Q806 371 778 435 Q750 499 702.5 546.5 Q655 594 591 622 Q527 650 455 650 L455 -51 Q527 -51 591 -23.5 Q655 4 702.5 52 Q750 100 778 163.5 Q806 227 806 299 Z M845 299 Q845 218 814.5 147 Q784 76 731 23 Q678 -30 607 -60.5 Q536 -91 455 -91 Q375 -91 304 -60.5 Q233 -30 180 23 Q127 76 96 147 Q65 218 65 299 Q65 380 96 451 Q127 522 180 575 Q233 628 304 658.5 Q375 689 455 689 Q536 689 607 658.5 Q678 628 731 575 Q784 522 814.5 451 Q845 380 845 299 Z " />
<glyph glyph-name="uni25D1" unicode="&#x25d1;" horiz-adv-x="910" d="M455 650 Q383 650 319 622 Q255 594 207.5 546.5 Q160 499 132 435 Q104 371 104 299 Q104 227 132 163.5 Q160 100 207.5 52 Q255 4 319 -23.5 Q383 -51 455 -51 L455 650 Z M845 299 Q845 218 814 147 Q783 76 730 23 Q677 -30 606 -60.5 Q535 -91 455 -91 Q374 -91 303 -60.5 Q232 -30 179 23 Q126 76 95.5 147 Q65 218 65 299 Q65 380 95.5 451 Q126 522 179 575 Q232 628 303 658.5 Q374 689 455 689 Q535 689 606 658.5 Q677 628 730 575 Q783 522 814 451 Q845 380 845 299 Z " />
<glyph glyph-name="shade" unicode="&#x2592;" horiz-adv-x="910" d="M199 19 Q199 8 192.5 0.5 Q186 -7 175 -7 Q164 -7 156.5 0.5 Q149 8 149 19 Q149 30 156.5 37 Q164 44 175 44 Q199 44 199 19 Z M293 19 Q293 8 285.5 0.5 Q278 -7 268 -7 Q257 -7 249.5 0.5 Q242 8 242 19 Q242 30 249.5 37 Q257 44 268 44 Q278 44 285.5 37 Q293 30 293 19 Z M199 113 Q199 102 192.5 94.5 Q186 87 175 87 Q164 87 156.5 94.5 Q149 102 149 113 Q149 123 156.5 130 Q164 137 175 137 Q186 137 192.5 130 Q199 123 199 113 Z M293 113 Q293 102 285.5 94.5 Q278 87 268 87 Q257 87 249.5 94.5 Q242 102 242 113 Q242 123 249.5 130 Q257 137 268 137 Q278 137 285.5 130 Q293 123 293 113 Z M387 19 Q387 8 379.5 0.5 Q372 -7 361 -7 Q350 -7 343 0.5 Q336 8 336 19 Q336 44 361 44 Q372 44 379.5 37 Q387 30 387 19 Z M199 206 Q199 195 192.5 187.5 Q186 180 175 180 Q164 180 156.5 187.5 Q149 195 149 206 Q149 217 156.5 224.5 Q164 232 175 232 Q186 232 192.5 224.5 Q199 217 199 206 Z M387 113 Q387 102 379.5 94.5 Q372 87 361 87 Q350 87 343 94.5 Q336 102 336 113 Q336 123 343 130 Q350 137 361 137 Q372 137 379.5 130 Q387 123 387 113 Z M293 206 Q293 195 285.5 187.5 Q278 180 268 180 Q257 180 249.5 187.5 Q242 195 242 206 Q242 217 249.5 224.5 Q257 232 268 232 Q278 232 285.5 224.5 Q293 217 293 206 Z M480 19 Q480 8 473 0.5 Q466 -7 455 -7 Q445 -7 437.5 0.5 Q430 8 430 19 Q430 30 437.5 37 Q445 44 455 44 Q480 44 480 19 Z M199 300 Q199 290 192.5 282.5 Q186 275 175 275 Q164 275 156.5 282.5 Q149 290 149 300 Q149 311 156.5 318 Q164 325 175 325 Q199 325 199 300 Z M480 113 Q480 102 473 94.5 Q466 87 455 87 Q445 87 437.5 94.5 Q430 102 430 113 Q430 123 437.5 130 Q445 137 455 137 Q466 137 473 130 Q480 123 480 113 Z M387 206 Q387 195 379.5 187.5 Q372 180 361 180 Q350 180 343 187.5 Q336 195 336 206 Q336 217 343 224.5 Q350 232 361 232 Q372 232 379.5 224.5 Q387 217 387 206 Z M293 300 Q293 290 285.5 282.5 Q278 275 268 275 Q257 275 249.5 282.5 Q242 290 242 300 Q242 311 249.5 318 Q257 325 268 325 Q278 325 285.5 318 Q293 311 293 300 Z M575 19 Q575 8 567.5 0.5 Q560 -7 549 -7 Q538 -7 530.5 0.5 Q523 8 523 19 Q523 30 530.5 37 Q538 44 549 44 Q560 44 567.5 37 Q575 30 575 19 Z M199 394 Q199 383 192.5 375.5 Q186 368 175 368 Q164 368 156.5 375.5 Q149 383 149 394 Q149 405 156.5 412.5 Q164 420 175 420 Q186 420 192.5 412.5 Q199 405 199 394 Z M575 113 Q575 102 567.5 94.5 Q560 87 549 87 Q538 87 530.5 94.5 Q523 102 523 113 Q523 123 530.5 130 Q538 137 549 137 Q560 137 567.5 130 Q575 123 575 113 Z M480 206 Q480 195 473 187.5 Q466 180 455 180 Q445 180 437.5 187.5 Q430 195 430 206 Q430 217 437.5 224.5 Q445 232 455 232 Q466 232 473 224.5 Q480 217 480 206 Z M387 300 Q387 290 379.5 282.5 Q372 275 361 275 Q350 275 343 282.5 Q336 290 336 300 Q336 325 361 325 Q372 325 379.5 318 Q387 311 387 300 Z M293 394 Q293 383 285.5 375.5 Q278 368 268 368 Q257 368 249.5 375.5 Q242 383 242 394 Q242 405 249.5 412.5 Q257 420 268 420 Q278 420 285.5 412.5 Q293 405 293 394 Z M668 19 Q668 8 661 0.5 Q654 -7 643 -7 Q632 -7 625 0.5 Q618 8 618 19 Q618 44 643 44 Q668 44 668 19 Z M199 487 Q199 477 192.5 470 Q186 463 175 463 Q164 463 156.5 470 Q149 477 149 487 Q149 498 156.5 505.5 Q164 513 175 513 Q186 513 192.5 505.5 Q199 498 199 487 Z M762 19 Q762 8 754.5 0.5 Q747 -7 736 -7 Q725 -7 718 0.5 Q711 8 711 19 Q711 44 736 44 Q747 44 754.5 37 Q762 30 762 19 Z M668 113 Q668 102 661 94.5 Q654 87 643 87 Q632 87 625 94.5 Q618 102 618 113 Q618 123 625 130 Q632 137 643 137 Q654 137 661 130 Q668 123 668 113 Z M575 206 Q575 195 567.5 187.5 Q560 180 549 180 Q538 180 530.5 187.5 Q523 195 523 206 Q523 217 530.5 224.5 Q538 232 549 232 Q560 232 567.5 224.5 Q575 217 575 206 Z M480 300 Q480 290 473 282.5 Q466 275 455 275 Q445 275 437.5 282.5 Q430 290 430 300 Q430 311 437.5 318 Q445 325 455 325 Q480 325 480 300 Z M387 394 Q387 383 379.5 375.5 Q372 368 361 368 Q350 368 343 375.5 Q336 383 336 394 Q336 405 343 412.5 Q350 420 361 420 Q372 420 379.5 412.5 Q387 405 387 394 Z M293 487 Q293 477 285.5 470 Q278 463 268 463 Q257 463 249.5 470 Q242 477 242 487 Q242 498 249.5 505.5 Q257 513 268 513 Q278 513 285.5 505.5 Q293 498 293 487 Z M199 581 Q199 556 175 556 Q164 556 156.5 563 Q149 570 149 581 Q149 592 156.5 599.5 Q164 607 175 607 Q186 607 192.5 599.5 Q199 592 199 581 Z M762 113 Q762 102 754.5 94.5 Q747 87 736 87 Q725 87 718 94.5 Q711 102 711 113 Q711 123 718 130 Q725 137 736 137 Q747 137 754.5 130 Q762 123 762 113 Z M293 581 Q293 570 285.5 563 Q278 556 268 556 Q257 556 249.5 563 Q242 570 242 581 Q242 592 249.5 599.5 Q257 607 268 607 Q278 607 285.5 599.5 Q293 592 293 581 Z M668 206 Q668 195 661 187.5 Q654 180 643 180 Q632 180 625 187.5 Q618 195 618 206 Q618 217 625 224.5 Q632 232 643 232 Q654 232 661 224.5 Q668 217 668 206 Z M575 300 Q575 290 567.5 282.5 Q560 275 549 275 Q538 275 530.5 282.5 Q523 290 523 300 Q523 311 530.5 318 Q538 325 549 325 Q560 325 567.5 318 Q575 311 575 300 Z M480 394 Q480 383 473 375.5 Q466 368 455 368 Q445 368 437.5 375.5 Q430 383 430 394 Q430 405 437.5 412.5 Q445 420 455 420 Q466 420 473 412.5 Q480 405 480 394 Z M387 487 Q387 477 379.5 470 Q372 463 361 463 Q350 463 343 470 Q336 477 336 487 Q336 498 343 505.5 Q350 513 361 513 Q372 513 379.5 505.5 Q387 498 387 487 Z M762 206 Q762 195 754.5 187.5 Q747 180 736 180 Q725 180 718 187.5 Q711 195 711 206 Q711 217 718 224.5 Q725 232 736 232 Q747 232 754.5 224.5 Q762 217 762 206 Z M387 581 Q387 570 379.5 563 Q372 556 361 556 Q336 556 336 581 Q336 592 343 599.5 Q350 607 361 607 Q372 607 379.5 599.5 Q387 592 387 581 Z M668 300 Q668 290 661 282.5 Q654 275 643 275 Q632 275 625 282.5 Q618 290 618 300 Q618 325 643 325 Q668 325 668 300 Z M575 394 Q575 383 567.5 375.5 Q560 368 549 368 Q538 368 530.5 375.5 Q523 383 523 394 Q523 405 530.5 412.5 Q538 420 549 420 Q560 420 567.5 412.5 Q575 405 575 394 Z M480 487 Q480 477 473 470 Q466 463 455 463 Q445 463 437.5 470 Q430 477 430 487 Q430 498 437.5 505.5 Q445 513 455 513 Q466 513 473 505.5 Q480 498 480 487 Z M762 300 Q762 290 754.5 282.5 Q747 275 736 275 Q725 275 718 282.5 Q711 290 711 300 Q711 325 736 325 Q747 325 754.5 318 Q762 311 762 300 Z M480 581 Q480 556 455 556 Q445 556 437.5 563 Q430 570 430 581 Q430 592 437.5 599.5 Q445 607 455 607 Q466 607 473 599.5 Q480 592 480 581 Z M668 394 Q668 383 661 375.5 Q654 368 643 368 Q632 368 625 375.5 Q618 383 618 394 Q618 405 625 412.5 Q632 420 643 420 Q654 420 661 412.5 Q668 405 668 394 Z M575 487 Q575 477 567.5 470 Q560 463 549 463 Q538 463 530.5 470 Q523 477 523 487 Q523 498 530.5 505.5 Q538 513 549 513 Q560 513 567.5 505.5 Q575 498 575 487 Z M762 394 Q762 383 754.5 375.5 Q747 368 736 368 Q725 368 718 375.5 Q711 383 711 394 Q711 405 718 412.5 Q725 420 736 420 Q747 420 754.5 412.5 Q762 405 762 394 Z M575 581 Q575 570 567.5 563 Q560 556 549 556 Q538 556 530.5 563 Q523 570 523 581 Q523 592 530.5 599.5 Q538 607 549 607 Q560 607 567.5 599.5 Q575 592 575 581 Z M668 487 Q668 477 661 470 Q654 463 643 463 Q632 463 625 470 Q618 477 618 487 Q618 498 625 505.5 Q632 513 643 513 Q654 513 661 505.5 Q668 498 668 487 Z M762 487 Q762 477 754.5 470 Q747 463 736 463 Q725 463 718 470 Q711 477 711 487 Q711 498 718 505.5 Q725 513 736 513 Q747 513 754.5 505.5 Q762 498 762 487 Z M668 581 Q668 556 643 556 Q618 556 618 581 Q618 592 625 599.5 Q632 607 643 607 Q654 607 661 599.5 Q668 592 668 581 Z M762 581 Q762 570 754.5 563 Q747 556 736 556 Q711 556 711 581 Q711 592 718 599.5 Q725 607 736 607 Q747 607 754.5 599.5 Q762 592 762 581 Z M794 -41 L794 636 L116 636 L116 -41 L794 -41 Z M827 -74 L83 -74 L83 669 L827 669 L827 -74 Z " />
<glyph glyph-name="uni25A4" unicode="&#x25a4;" horiz-adv-x="910" d="M794 -41 L794 26 L116 26 L116 -41 L794 -41 Z M794 58 L794 126 L116 126 L116 58 L794 58 Z M794 158 L794 230 L116 230 L116 158 L794 158 Z M794 262 L794 333 L116 333 L116 262 L794 262 Z M794 365 L794 431 L116 431 L116 365 L794 365 Z M794 463 L794 536 L116 536 L116 463 L794 463 Z M794 568 L794 636 L116 636 L116 568 L794 568 Z M827 -74 L83 -74 L83 669 L827 669 L827 -74 Z " />
<glyph glyph-name="uni25A5" unicode="&#x25a5;" horiz-adv-x="910" d="M184 -41 L184 636 L116 636 L116 -41 L184 -41 Z M289 -41 L289 636 L216 636 L216 -41 L289 -41 Z M387 -41 L387 636 L321 636 L321 -41 L387 -41 Z M490 -41 L490 636 L419 636 L419 -41 L490 -41 Z M594 -41 L594 636 L522 636 L522 -41 L594 -41 Z M694 -41 L694 636 L626 636 L626 -41 L694 -41 Z M794 -41 L794 636 L726 636 L726 -41 L794 -41 Z M827 -74 L83 -74 L83 669 L827 669 L827 -74 Z " />
<glyph glyph-name="uni25A8" unicode="&#x25a8;" horiz-adv-x="910" d="M769 636 L652 636 L116 101 L116 -17 L769 636 Z M604 636 L486 636 L116 267 L116 149 L604 636 Z M438 636 L319 636 L116 434 L116 315 L438 636 Z M271 636 L116 636 L116 482 L271 636 Z M794 -41 L794 115 L638 -41 L794 -41 Z M794 163 L794 281 L472 -41 L590 -41 L794 163 Z M794 329 L794 447 L306 -41 L424 -41 L794 329 Z M794 495 L794 613 L140 -41 L258 -41 L794 495 Z M827 -74 L83 -74 L83 669 L827 669 L827 -74 Z " />
<glyph glyph-name="uni25A7" unicode="&#x25a7;" horiz-adv-x="910" d="M272 -41 L116 115 L116 -41 L272 -41 Z M438 -41 L116 281 L116 163 L320 -41 L438 -41 Z M604 -41 L116 447 L116 329 L486 -41 L604 -41 Z M770 -41 L116 613 L116 495 L652 -41 L770 -41 Z M794 -17 L794 101 L258 636 L141 636 L794 -17 Z M794 149 L794 267 L424 636 L306 636 L794 149 Z M794 315 L794 434 L591 636 L472 636 L794 315 Z M794 482 L794 636 L639 636 L794 482 Z M827 -74 L83 -74 L83 669 L827 669 L827 -74 Z " />
<glyph glyph-name="uni25A6" unicode="&#x25a6;" horiz-adv-x="910" d="M187 -41 L187 30 L116 30 L116 -41 L187 -41 Z M187 60 L187 131 L116 131 L116 60 L187 60 Z M288 -41 L288 30 L217 30 L217 -41 L288 -41 Z M288 60 L288 131 L217 131 L217 60 L288 60 Z M187 161 L187 232 L116 232 L116 161 L187 161 Z M389 -41 L389 30 L318 30 L318 -41 L389 -41 Z M389 60 L389 131 L318 131 L318 60 L389 60 Z M288 161 L288 232 L217 232 L217 161 L288 161 Z M187 262 L187 333 L116 333 L116 262 L187 262 Z M490 -41 L490 30 L419 30 L419 -41 L490 -41 Z M490 60 L490 131 L419 131 L419 60 L490 60 Z M389 161 L389 232 L318 232 L318 161 L389 161 Z M288 262 L288 333 L217 333 L217 262 L288 262 Z M187 363 L187 434 L116 434 L116 363 L187 363 Z M591 -41 L591 30 L520 30 L520 -41 L591 -41 Z M591 60 L591 131 L520 131 L520 60 L591 60 Z M490 161 L490 232 L419 232 L419 161 L490 161 Z M389 262 L389 333 L318 333 L318 262 L389 262 Z M288 363 L288 434 L217 434 L217 363 L288 363 Z M187 464 L187 535 L116 535 L116 464 L187 464 Z M692 -41 L692 30 L621 30 L621 -41 L692 -41 Z M692 60 L692 131 L621 131 L621 60 L692 60 Z M591 161 L591 232 L520 232 L520 161 L591 161 Z M490 262 L490 333 L419 333 L419 262 L490 262 Z M389 363 L389 434 L318 434 L318 363 L389 363 Z M288 464 L288 535 L217 535 L217 464 L288 464 Z M187 565 L187 636 L116 636 L116 565 L187 565 Z M794 -41 L794 30 L723 30 L723 -41 L794 -41 Z M692 161 L692 232 L621 232 L621 161 L692 161 Z M591 262 L591 333 L520 333 L520 262 L591 262 Z M490 363 L490 434 L419 434 L419 363 L490 363 Z M389 464 L389 535 L318 535 L318 464 L389 464 Z M288 565 L288 636 L217 636 L217 565 L288 565 Z M794 60 L794 131 L723 131 L723 60 L794 60 Z M692 262 L692 333 L621 333 L621 262 L692 262 Z M591 363 L591 434 L520 434 L520 363 L591 363 Z M490 464 L490 535 L419 535 L419 464 L490 464 Z M389 565 L389 636 L318 636 L318 565 L389 565 Z M794 161 L794 232 L723 232 L723 161 L794 161 Z M692 363 L692 434 L621 434 L621 363 L692 363 Z M591 464 L591 535 L520 535 L520 464 L591 464 Z M490 565 L490 636 L419 636 L419 565 L490 565 Z M794 262 L794 333 L723 333 L723 262 L794 262 Z M692 464 L692 535 L621 535 L621 464 L692 464 Z M591 565 L591 636 L520 636 L520 565 L591 565 Z M794 363 L794 434 L723 434 L723 363 L794 363 Z M692 565 L692 636 L621 636 L621 565 L692 565 Z M794 464 L794 535 L723 535 L723 464 L794 464 Z M794 565 L794 636 L723 636 L723 565 L794 565 Z M827 -74 L83 -74 L83 669 L827 669 L827 -74 Z " />
<glyph glyph-name="uni25A9" unicode="&#x25a9;" horiz-adv-x="910" d="M272 -41 L204 27 L137 -41 L272 -41 Z M180 51 L116 115 L116 -13 L180 51 Z M354 43 L287 110 L228 51 L296 -17 L354 43 Z M263 134 L199 198 L140 139 L204 75 L263 134 Z M438 -41 L379 18 L319 -41 L438 -41 Z M175 222 L116 281 L116 164 L175 222 Z M521 42 L462 101 L403 42 L462 -17 L521 42 Z M438 125 L371 193 L311 134 L378 66 L438 125 Z M346 217 L282 281 L223 222 L287 158 L346 217 Z M258 305 L199 364 L140 305 L199 246 L258 305 Z M175 388 L116 447 L116 329 L175 388 Z M604 -41 L545 18 L486 -41 L604 -41 Z M687 42 L628 101 L569 42 L628 -17 L687 42 Z M604 125 L545 184 L486 125 L545 66 L604 125 Z M429 299 L365 364 L306 305 L371 241 L429 299 Z M341 388 L282 447 L223 388 L282 329 L341 388 Z M258 471 L199 530 L140 471 L199 412 L258 471 Z M521 208 L454 276 L395 216 L461 150 L521 208 Z M175 554 L116 613 L116 495 L175 554 Z M770 -41 L711 18 L652 -41 L770 -41 Z M794 -17 L794 101 L735 42 L794 -17 Z M258 636 L141 636 L199 578 L258 636 Z M424 470 L364 529 L306 471 L366 411 L424 470 Z M770 125 L711 184 L652 125 L711 66 L770 125 Z M687 208 L627 267 L569 209 L628 149 L687 208 Z M512 382 L448 446 L390 387 L454 323 L512 382 Z M341 553 L281 613 L223 554 L282 495 L341 553 Z M604 291 L536 358 L478 299 L544 233 L604 291 Z M794 149 L794 267 L735 208 L794 149 Z M424 636 L306 636 L365 577 L424 636 Z M770 291 L710 350 L651 291 L711 232 L770 291 Z M686 375 L620 441 L561 382 L627 315 L686 375 Z M596 465 L531 528 L472 470 L537 406 L596 465 Z M508 553 L448 612 L389 553 L448 494 L508 553 Z M794 314 L794 434 L734 374 L794 314 Z M592 636 L472 636 L532 576 L592 636 Z M679 548 L615 612 L555 553 L620 488 L679 548 Z M770 458 L704 525 L643 465 L710 398 L770 458 Z M768 636 L639 636 L703 572 L768 636 Z M794 482 L794 615 L727 548 L794 482 Z M827 -74 L83 -74 L83 669 L827 669 L827 -74 Z " />
<glyph glyph-name="uni2668" unicode="&#x2668;" horiz-adv-x="910" d="M853 101 Q853 55 821 16.5 Q789 -22 735 -49.5 Q681 -77 610 -92.5 Q539 -108 460 -108 Q381 -108 308 -94.5 Q235 -81 179 -57 Q123 -33 89.5 0.5 Q56 34 56 74 Q56 114 81 144.5 Q106 175 139.5 196.5 Q173 218 208 231 Q243 244 264 250 Q275 254 277 245.5 Q279 237 266 232 Q262 230 240 219.5 Q218 209 193.5 191 Q169 173 149 148.5 Q129 124 129 94 Q129 68 158.5 49 Q188 30 235 17.5 Q282 5 341.5 -1.5 Q401 -8 461 -8 Q521 -8 580 0.5 Q639 9 686 25 Q733 41 762.5 63.5 Q792 86 792 115 Q792 136 779 154 Q766 172 748 186.5 Q730 201 710 211 Q690 221 677 225 Q665 229 668 236 Q671 243 681 241 Q696 239 724.5 229.5 Q753 220 781.5 202.5 Q810 185 831.5 159.5 Q853 134 853 101 Z M383 261 Q386 231 369.5 187.5 Q353 144 328 96 Q315 72 310 57.5 Q305 43 304 34 Q303 26 297.5 25.5 Q292 25 287 34 Q281 47 278 73 Q275 99 286 131 Q291 145 297 170 Q303 195 306 225 Q309 255 306.5 286.5 Q304 318 293 345 Q279 379 275 412 Q271 445 275 476.5 Q279 508 289.5 537.5 Q300 567 315 595 Q323 609 329 625 Q335 641 338 655 Q340 663 345 662.5 Q350 662 352 656 Q357 641 358 603.5 Q359 566 342 506 Q336 484 340 457 Q344 430 352.5 399 Q361 368 370 333 Q379 298 383 261 Z M525 286 Q529 264 522.5 237 Q516 210 505 183.5 Q494 157 482 134 Q470 111 463 97 Q448 69 441 51.5 Q434 34 433 24 Q432 15 425.5 15.5 Q419 16 416 23 Q409 39 408 71.5 Q407 104 424 146 Q439 181 442 216 Q445 251 442 281 Q439 311 433 333 Q427 355 423 363 Q403 409 400 445 Q397 481 403.5 510 Q410 539 422 562.5 Q434 586 444 607 Q458 636 462.5 660 Q467 684 467 700 Q467 711 472.5 710.5 Q478 710 482 702 Q487 691 491.5 673.5 Q496 656 497.5 634 Q499 612 496.5 587.5 Q494 563 485 538 Q472 502 474 472.5 Q476 443 484.5 414.5 Q493 386 505 355.5 Q517 325 525 286 Z M657 298 Q660 260 652 231 Q644 202 632 178.5 Q620 155 606.5 136 Q593 117 585 101 Q572 76 565.5 56.5 Q559 37 557 28 Q555 23 550.5 21 Q546 19 543 28 Q540 35 538.5 47 Q537 59 537 73 Q537 87 539.5 101 Q542 115 547 127 Q556 149 565.5 177 Q575 205 580 234 Q585 263 584.5 292.5 Q584 322 573 348 Q556 386 550 417.5 Q544 449 545.5 476.5 Q547 504 554.5 529.5 Q562 555 573 581 Q580 598 583 617.5 Q586 637 586 650 Q586 659 590.5 661 Q595 663 600 652 Q608 636 614 601 Q620 566 612 509 Q607 474 612 451 Q617 428 625.5 406.5 Q634 385 643.5 360 Q653 335 657 298 Z " />
<glyph glyph-name="uni260F" unicode="&#x260f;" horiz-adv-x="910" d="M619 210 Q619 244 606 273.5 Q593 303 570.5 325.5 Q548 348 518.5 361 Q489 374 455 374 Q421 374 391.5 361 Q362 348 339.5 325.5 Q317 303 304 273.5 Q291 244 291 210 Q291 176 304 146.5 Q317 117 339.5 95 Q362 73 391.5 60 Q421 47 455 47 Q489 47 518.5 60 Q548 73 570.5 95 Q593 117 606 146.5 Q619 176 619 210 Z M633 210 Q633 174 619 141.5 Q605 109 581 84.5 Q557 60 524.5 46 Q492 32 455 32 Q419 32 386.5 46 Q354 60 329.5 84.5 Q305 109 291 141.5 Q277 174 277 210 Q277 247 291 279.5 Q305 312 329.5 336 Q354 360 386.5 374 Q419 388 455 388 Q492 388 524.5 374 Q557 360 581 336 Q605 312 619 279.5 Q633 247 633 210 Z M800 -9 Q803 -9 805.5 -0.5 Q808 8 807 19 Q806 30 802 40.5 Q798 51 789 56 Q789 69 787 88.5 Q785 108 780 129 Q775 150 766.5 169.5 Q758 189 744 202 Q720 225 702 242 Q684 259 671.5 273.5 Q659 288 649.5 302.5 Q640 317 633 337 Q613 390 608 434.5 Q603 479 606 512 L553 512 L553 430 L357 430 L357 512 L305 512 Q308 479 302.5 434.5 Q297 390 277 337 Q269 317 260.5 302.5 Q252 288 239 273.5 Q226 259 208.5 242 Q191 225 167 202 Q153 189 144.5 169.5 Q136 150 131 129 Q126 108 124 88.5 Q122 69 122 56 Q113 51 109 40.5 Q105 30 104 19 Q103 8 105 -0.5 Q107 -9 110 -9 L800 -9 Z M859 330 Q865 331 869 350 Q873 369 869.5 396 Q866 423 852 453 Q838 483 810 507 Q787 526 744 541.5 Q701 557 650 568.5 Q599 580 547 586.5 Q495 593 455 593 Q403 593 349.5 586.5 Q296 580 248.5 568.5 Q201 557 162 541.5 Q123 526 101 507 Q72 483 58.5 453 Q45 423 41.5 396 Q38 369 42 350 Q46 331 52 330 Q71 328 95 331.5 Q119 335 143 342 Q167 349 189.5 357 Q212 365 228 373 Q234 377 231 388.5 Q228 400 223.5 415 Q219 430 216 446.5 Q213 463 219 477 Q223 488 230.5 497 Q238 506 252.5 512 Q267 518 289 521 Q311 524 345 524 Q368 524 391 520 Q409 516 423.5 514 Q438 512 455 512 Q473 512 487.5 514 Q502 516 519 520 Q532 522 543.5 523 Q555 524 566 524 Q600 524 621.5 520.5 Q643 517 657 511 Q671 505 678.5 496.5 Q686 488 691 477 Q697 463 694 446.5 Q691 430 686.5 415 Q682 400 679.5 388.5 Q677 377 683 373 Q699 365 721.5 356.5 Q744 348 768 341.5 Q792 335 816 331.5 Q840 328 859 330 Z M541 442 L541 513 Q525 509 502 506 Q479 503 455 503 Q431 503 408 506 Q385 509 369 513 L369 442 L541 442 Z M878 328 Q872 318 858 315.5 Q844 313 825.5 314.5 Q807 316 786.5 321 Q766 326 747 331 Q716 340 691 353.5 Q666 367 662 385 Q660 392 663 403 Q666 414 670 425 Q674 436 677.5 446.5 Q681 457 680 464 Q676 484 659 493 Q642 502 623 506 Q620 483 620 452.5 Q620 422 634 374 Q641 348 650.5 329.5 Q660 311 671.5 296 Q683 281 696.5 269 Q710 257 726 244 Q751 223 765 199.5 Q779 176 786 153 Q793 130 794.5 110 Q796 90 796 75 Q804 72 808.5 63 Q813 54 815.5 42 Q818 30 818 17.5 Q818 5 817 -5 Q816 -14 807 -17.5 Q798 -21 783 -21 L127 -21 Q112 -21 103 -17.5 Q94 -14 93 -5 Q92 5 92 17.5 Q92 30 94.5 42 Q97 54 101.5 63 Q106 72 114 75 Q114 90 115.5 110 Q117 130 124 153 Q131 176 145 199.5 Q159 223 184 244 Q200 257 213.5 269 Q227 281 238.5 296 Q250 311 259.5 329.5 Q269 348 276 374 Q289 422 289.5 452.5 Q290 483 287 506 Q268 502 251 493 Q234 484 230 464 Q228 457 231.5 446.5 Q235 436 239.5 425 Q244 414 247 403 Q250 392 248 385 Q244 367 219 353.5 Q194 340 163 331 Q144 326 123.5 321 Q103 316 84.5 314.5 Q66 313 52 315.5 Q38 318 32 328 Q26 338 24.5 357 Q23 376 26 398.5 Q29 421 37.5 444 Q46 467 60 485 Q84 516 126.5 539 Q169 562 222 576.5 Q275 591 335 598 Q395 605 455 605 Q515 605 575 598 Q635 591 688 576.5 Q741 562 783.5 539 Q826 516 850 485 Q864 467 872.5 444 Q881 421 884 398.5 Q887 376 885.5 357 Q884 338 878 328 Z " />
<glyph glyph-name="uni260E" unicode="&#x260e;" horiz-adv-x="910" d="M602 208 Q602 238 590.5 265 Q579 292 559 312 Q539 332 512 343.5 Q485 355 455 355 Q425 355 398 343.5 Q371 332 351 312 Q331 292 319.5 265 Q308 238 308 208 Q308 178 319.5 151 Q331 124 351 104.5 Q371 85 398 73.5 Q425 62 455 62 Q485 62 512 73.5 Q539 85 559 104.5 Q579 124 590.5 151 Q602 178 602 208 Z M533 439 L533 504 Q519 500 498 497 Q477 494 455 494 Q433 494 412 497 Q391 500 377 504 L377 439 L533 439 Z M878 328 Q872 318 858 315.5 Q844 313 825.5 314.5 Q807 316 786.5 321 Q766 326 747 331 Q716 340 691 353.5 Q666 367 662 385 Q660 392 662.5 403 Q665 414 669 425 Q673 436 676 446.5 Q679 457 678 464 Q674 484 658 491 Q642 498 623 501 Q620 478 620 449.5 Q620 421 634 374 Q641 348 650.5 329.5 Q660 311 671.5 296 Q683 281 696.5 269 Q710 257 726 244 Q751 223 765 199.5 Q779 176 786 153 Q793 130 794.5 110 Q796 90 796 75 Q804 72 808.5 63 Q813 54 815.5 42 Q818 30 818 17.5 Q818 5 817 -5 Q816 -14 807 -17.5 Q798 -21 783 -21 L127 -21 Q112 -21 103 -17.5 Q94 -14 93 -5 Q92 5 92 17.5 Q92 30 94.5 42 Q97 54 101.5 63 Q106 72 114 75 Q114 90 115.5 110 Q117 130 124 153 Q131 176 145 199.5 Q159 223 184 244 Q200 257 213.5 269 Q227 281 238.5 296 Q250 311 259.5 329.5 Q269 348 276 374 Q289 421 289.5 449.5 Q290 478 287 501 Q268 498 252 491 Q236 484 232 464 Q230 457 233 446.5 Q236 436 240 425 Q244 414 247 403 Q250 392 248 385 Q244 367 219 353.5 Q194 340 163 331 Q144 326 123.5 321 Q103 316 84.5 314.5 Q66 313 52 315.5 Q38 318 32 328 Q26 338 24.5 357 Q23 376 26 398.5 Q29 421 37.5 443.5 Q46 466 60 484 Q84 515 126.5 538 Q169 561 222 576 Q275 591 335 598 Q395 605 455 605 Q515 605 575 598 Q635 591 688 576 Q741 561 783.5 538 Q826 515 850 484 Q864 466 872.5 443.5 Q881 421 884 398.5 Q887 376 885.5 357 Q884 338 878 328 Z " />
<glyph glyph-name="uni261C" unicode="&#x261c;" horiz-adv-x="910" d="M847 184 L771 184 L771 205 L742 205 Q716 189 677.5 175 Q639 161 574 150 Q556 147 529.5 146 Q503 145 475.5 145 Q448 145 422.5 146.5 Q397 148 381 150 Q363 153 346.5 159.5 Q330 166 326 183 Q324 195 328.5 202.5 Q333 210 341 215 Q327 215 315.5 224 Q304 233 303 248 Q302 259 305.5 266 Q309 273 314 278 Q300 280 289 287 Q278 294 278 311 Q278 333 297 342 Q316 351 360 351 L357 359 Q333 360 314 360.5 Q295 361 275.5 361.5 Q256 362 235 363 Q214 364 186 366 Q165 367 143 368 Q121 369 103 373 Q85 377 73.5 385.5 Q62 394 62 409 Q62 422 71 429 Q80 436 96 439.5 Q112 443 133.5 444.5 Q155 446 180 448 Q194 449 225 450 Q256 451 296 451.5 Q336 452 380.5 452.5 Q425 453 467 453 Q499 453 531.5 452.5 Q564 452 595.5 447 Q627 442 656.5 430 Q686 418 712 394 Q728 390 744 388.5 Q760 387 772 388 L772 420 L847 420 L847 184 Z M772 217 L772 371 Q764 370 750.5 371 Q737 372 728 374 L730 366 Q732 356 730 355.5 Q728 355 723 361 Q715 371 700.5 383.5 Q686 396 665 410 Q650 420 624 426 Q598 432 570.5 435 Q543 438 518 438.5 Q493 439 480 437 Q466 435 447 428.5 Q428 422 414 413 Q406 408 401.5 401 Q397 394 392 386 Q384 369 373 362 Q369 357 376 353 Q383 349 404 357 Q414 361 422 367.5 Q430 374 436 379.5 Q442 385 446 388.5 Q450 392 452 389 Q457 383 448 374 Q456 371 468.5 369.5 Q481 368 489 370 Q509 375 519 382.5 Q529 390 531 386 Q533 381 529 374.5 Q525 368 517 363 Q523 354 543.5 338 Q564 322 596 311 Q616 304 633 301.5 Q650 299 662 297.5 Q674 296 681 294.5 Q688 293 688 289 Q688 286 679 285 Q670 284 656.5 285 Q643 286 628 288.5 Q613 291 601 294 Q580 301 563.5 310 Q547 319 534.5 328.5 Q522 338 513.5 346.5 Q505 355 501 361 Q496 358 489.5 357.5 Q483 357 478 357 Q464 358 452.5 360 Q441 362 436 364 L421 351 Q447 351 465 344.5 Q483 338 486 326 Q490 312 486.5 301.5 Q483 291 475 285 Q503 278 506 257 Q508 243 503.5 236.5 Q499 230 491 225 Q520 219 523 197 Q525 182 518 173.5 Q511 165 510 164 Q524 161 545 164 Q584 167 614.5 173.5 Q645 180 669 188 Q693 196 712 206 Q731 216 747 226 Q750 229 752.5 229 Q755 229 754 225 L752 217 L772 217 Z M429 437 Q380 437 314.5 436 Q249 435 181 433 Q133 431 106 427.5 Q79 424 79 409 Q79 393 102 389.5 Q125 386 181 382 Q243 379 285 377 Q327 375 368 374 L389 406 Q397 417 406 424.5 Q415 432 429 437 Z M831 200 L831 403 L787 403 L787 200 L831 200 Z M490 247 Q491 262 484 267.5 Q477 273 462 275 Q455 276 439 276 Q423 276 404.5 276 Q386 276 369 275.5 Q352 275 343 275 Q333 274 326.5 267 Q320 260 320 250 Q320 234 345 230 Q350 229 368.5 228 Q387 227 406.5 227 Q426 227 442 227 Q458 227 459 227 Q469 227 479 231.5 Q489 236 490 247 Z M507 194 Q506 205 495.5 208.5 Q485 212 476 212 Q449 213 417 213 Q385 213 363 211 Q352 210 347.5 202.5 Q343 195 345 187 Q346 181 350.5 176 Q355 171 363 169 Q389 164 420.5 163.5 Q452 163 477 165 Q510 167 507 194 Z M467 316 Q467 322 462.5 327 Q458 332 447 333 Q410 335 377.5 336 Q345 337 313 333 Q303 331 298 325 Q293 319 294 311 Q294 304 299 298 Q304 292 314 292 Q329 291 348 291 Q367 291 385.5 291 Q404 291 420.5 292 Q437 293 448 294 Q456 296 461.5 300.5 Q467 305 467 316 Z " />
<glyph glyph-name="uni261E" unicode="&#x261e;" horiz-adv-x="910" d="M847 409 Q847 394 835.5 385.5 Q824 377 806 373 Q788 369 766 368 Q744 367 723 366 Q695 364 674 363 Q653 362 633.5 361.5 Q614 361 595 360.5 Q576 360 552 359 L549 351 Q593 351 612 342 Q631 333 631 311 Q631 294 620 287 Q609 280 595 278 Q600 273 603.5 266 Q607 259 606 248 Q605 233 593.5 224 Q582 215 568 215 Q576 210 580.5 202.5 Q585 195 583 183 Q579 166 562.5 159.5 Q546 153 528 150 Q512 148 486.5 146.5 Q461 145 433.5 145 Q406 145 379.5 146 Q353 147 335 150 Q270 161 231.5 175 Q193 189 167 205 L138 205 L138 184 L62 184 L62 420 L137 420 L137 388 Q149 387 165 388.5 Q181 390 197 394 Q223 418 252.5 430 Q282 442 313.5 447 Q345 452 377.5 452.5 Q410 453 442 453 Q484 453 528.5 452.5 Q573 452 613 451.5 Q653 451 684 450 Q715 449 729 448 Q754 446 775.5 444.5 Q797 443 813 439.5 Q829 436 838 429 Q847 422 847 409 Z M536 362 Q525 369 517 386 Q512 394 507.5 401 Q503 408 495 413 Q481 422 462 428.5 Q443 435 429 437 Q415 439 390.5 438.5 Q366 438 338.5 435 Q311 432 285 426 Q259 420 244 410 Q223 396 208.5 383.5 Q194 371 186 361 Q181 355 179 355.5 Q177 356 179 366 L181 374 Q172 372 158.5 371 Q145 370 137 371 L137 217 L157 217 L155 225 Q153 230 156 229 Q159 228 162 226 Q193 206 239.5 188.5 Q286 171 364 164 Q383 161 398 164 Q396 164 389.5 172.5 Q383 181 386 197 Q389 219 418 225 Q410 230 405.5 236.5 Q401 243 403 257 Q408 278 434 285 Q426 291 422.5 301.5 Q419 312 423 326 Q427 338 444.5 344.5 Q462 351 488 351 L473 364 Q468 362 456.5 360 Q445 358 431 357 Q426 357 419.5 357.5 Q413 358 408 361 Q404 355 395.5 346.5 Q387 338 374.5 328.5 Q362 319 345.5 310 Q329 301 308 294 Q296 291 281 288.5 Q266 286 252.5 285 Q239 284 230 285 Q221 286 221 289 Q221 293 228 294.5 Q235 296 247 297.5 Q259 299 276 301.5 Q293 304 313 311 Q345 322 365.5 338 Q386 354 392 363 Q384 368 380 374.5 Q376 381 378 386 Q380 390 390 382.5 Q400 375 420 370 Q428 368 440.5 369.5 Q453 371 461 374 Q457 378 455.5 382 Q454 386 457 389 Q459 392 463 388.5 Q467 385 473 379.5 Q479 374 487 367.5 Q495 361 505 357 Q526 349 533 353 Q540 357 536 362 Z M830 409 Q830 424 803 427.5 Q776 431 728 433 Q660 435 594.5 436 Q529 437 480 437 Q494 432 503 424.5 Q512 417 520 406 L541 374 Q582 375 624 377 Q666 379 728 382 Q784 386 807 389.5 Q830 393 830 409 Z M122 200 L122 403 L78 403 L78 200 L122 200 Z M589 250 Q589 260 582.5 267 Q576 274 566 275 Q557 275 540 275.5 Q523 276 504.5 276 Q486 276 470 276 Q454 276 447 275 Q433 273 425.5 267.5 Q418 262 419 247 Q420 236 430 231.5 Q440 227 450 227 Q451 227 467 227 Q483 227 502.5 227 Q522 227 540.5 228 Q559 229 564 230 Q589 234 589 250 Z M564 187 Q566 195 561.5 202.5 Q557 210 546 211 Q524 213 492 213 Q460 213 433 212 Q424 212 413.5 208.5 Q403 205 402 194 Q399 167 432 165 Q457 163 488.5 163.5 Q520 164 546 169 Q554 171 558.5 176 Q563 181 564 187 Z M615 311 Q616 319 611 325 Q606 331 596 333 Q564 337 531.5 336 Q499 335 462 333 Q451 332 446.5 327 Q442 322 442 316 Q442 305 447.5 300.5 Q453 296 461 294 Q472 293 488.5 292 Q505 291 523.5 291 Q542 291 561 291 Q580 291 595 292 Q605 292 610 298 Q615 304 615 311 Z " />
<glyph glyph-name="paragraph" unicode="&#xb6;" horiz-adv-x="574" d="M298 355 L238 355 Q201 355 166 365.5 Q131 376 104 398 Q77 420 60.5 454 Q44 488 44 535 Q44 572 54 605 Q64 638 88.5 662.5 Q113 687 153.5 701.5 Q194 716 254 716 L482 716 L482 -122 L449 -122 L449 687 L333 687 L333 -122 L298 -122 L298 355 Z " />
<glyph glyph-name="dagger" unicode="&#x2020;" horiz-adv-x="495" d="M225 449 L66 449 L66 486 L225 486 L225 692 L268 692 L268 486 L429 486 L429 449 L268 449 L268 -91 L225 -91 L225 449 Z " />
<glyph glyph-name="daggerdbl" unicode="&#x2021;" horiz-adv-x="495" d="M66 152 L225 152 L225 449 L66 449 L66 486 L225 486 L225 692 L268 692 L268 486 L429 486 L429 449 L268 449 L268 152 L429 152 L429 115 L268 115 L268 -91 L225 -91 L225 115 L66 115 L66 152 Z " />
<glyph glyph-name="arrowupdn" unicode="&#x2195;" horiz-adv-x="910" d="M484 553 L484 135 L611 209 L628 194 L455 -14 L282 194 L299 209 L426 135 L426 553 L299 478 L282 493 L455 701 L628 493 L611 478 L484 553 Z " />
<glyph glyph-name="uni2197" unicode="&#x2197;" horiz-adv-x="910" d="M101 31 L682 612 L540 648 L539 671 L808 696 L783 427 L760 428 L724 570 L142 -11 L101 31 Z " />
<glyph glyph-name="uni2199" unicode="&#x2199;" horiz-adv-x="910" d="M809 657 L227 76 L369 39 L371 16 L101 -9 L126 261 L149 259 L186 117 L768 698 L809 657 Z " />
<glyph glyph-name="uni2196" unicode="&#x2196;" horiz-adv-x="910" d="M767 -11 L185 570 L149 428 L126 427 L101 696 L370 671 L369 648 L227 612 L808 31 L767 -11 Z " />
<glyph glyph-name="uni2198" unicode="&#x2198;" horiz-adv-x="910" d="M142 698 L724 117 L761 259 L784 261 L809 -9 L539 16 L541 39 L683 76 L101 657 L142 698 Z " />
<glyph glyph-name="uni266D" unicode="&#x266d;" horiz-adv-x="517" d="M344 229 Q344 256 339 279 Q334 302 324 319 Q314 336 300.5 346 Q287 356 271 356 Q243 356 222.5 344 Q202 332 188.5 314.5 Q175 297 168.5 276.5 Q162 256 162 238 L162 24 Q192 26 224 38 Q256 50 282.5 74 Q309 98 326.5 136 Q344 174 344 229 Z M418 266 Q418 210 403.5 166.5 Q389 123 365 91.5 Q341 60 309 38.5 Q277 17 241.5 3.5 Q206 -10 169 -16.5 Q132 -23 99 -25 L99 640 L162 640 L162 312 Q168 328 177.5 344.5 Q187 361 203.5 375 Q220 389 244 398 Q268 407 302 407 Q326 407 347 397 Q368 387 384 368.5 Q400 350 409 324 Q418 298 418 266 Z " />
<glyph glyph-name="uni2669" unicode="&#x2669;" horiz-adv-x="388" d="M288 115 Q288 72 281.5 44 Q275 16 253 -10 Q239 -26 221 -39.5 Q203 -53 183.5 -60 Q164 -67 145.5 -64.5 Q127 -62 114 -47 Q100 -32 99.5 -13 Q99 6 107.5 25 Q116 44 131.5 60.5 Q147 77 165 88 Q202 110 250 117 L250 662 L288 662 L288 115 Z " />
<glyph glyph-name="musicalnote" unicode="&#x266a;" horiz-adv-x="539" d="M479 339 Q479 309 470 277.5 Q461 246 440 214 Q420 184 390 155.5 Q360 127 333 111 Q322 104 318.5 109.5 Q315 115 323 123 Q336 136 353 155 Q370 174 385.5 198.5 Q401 223 411.5 252.5 Q422 282 422 316 Q422 349 403 372 Q384 395 357 411.5 Q330 428 300 438 Q270 448 248 455 L248 115 Q248 72 241.5 44 Q235 16 213 -10 Q199 -26 181 -39.5 Q163 -53 143.5 -60 Q124 -67 105.5 -64.5 Q87 -62 74 -47 Q60 -32 59.5 -13 Q59 6 67.5 25 Q76 44 91.5 60.5 Q107 77 125 88 Q162 110 210 117 L210 617 Q210 630 211 643.5 Q212 657 219 657 Q226 657 232 652 Q238 647 250 633 Q263 618 278 601.5 Q293 585 320 562 Q363 525 393.5 494 Q424 463 443 436 Q462 409 470.5 385.5 Q479 362 479 339 Z " />
<glyph glyph-name="uni266C" unicode="&#x266c;" horiz-adv-x="693" d="M598 486 L598 544 L251 470 L251 412 L598 486 Z M638 191 Q638 156 619 126 Q600 96 571 72 Q558 61 541.5 52 Q525 43 508.5 40 Q492 37 476.5 40.5 Q461 44 450 59 Q441 70 442 85.5 Q443 101 450 117 Q457 133 468.5 147.5 Q480 162 493 172 Q522 193 546.5 199.5 Q571 206 598 210 L598 392 L251 317 L251 94 Q251 59 232 29 Q213 -1 184 -25 Q171 -36 154.5 -45 Q138 -54 121.5 -57 Q105 -60 89.5 -56.5 Q74 -53 63 -38 Q54 -27 55 -11.5 Q56 4 63 20 Q70 36 81.5 50.5 Q93 65 106 75 Q135 96 159.5 102.5 Q184 109 211 113 L211 559 L638 645 L638 191 Z " />
<glyph glyph-name="uni327F" unicode="&#x327f;" horiz-adv-x="910" d="M880 301 Q880 214 849.5 136.5 Q819 59 763 1.5 Q707 -56 628.5 -90 Q550 -124 454 -124 Q373 -124 304.5 -99 Q236 -74 183 -30 Q130 14 93 74.5 Q56 135 40 207 L118 208 Q133 151 162 103 Q191 55 233.5 20.5 Q276 -14 331.5 -33.5 Q387 -53 454 -53 Q531 -53 594.5 -27 Q658 -1 704 44 Q750 89 776.5 149.5 Q803 210 807 280 L632 280 L632 352 L877 352 Q880 326 880 301 Z M774 442 Q754 489 724 528.5 Q694 568 654 596 Q614 624 564 639.5 Q514 655 454 655 Q382 655 322 632 Q262 609 217.5 568.5 Q173 528 144 472.5 Q115 417 105 352 L227 352 L227 280 L30 280 L30 301 Q30 388 61 465 Q92 542 147.5 599.5 Q203 657 281 691 Q359 725 454 725 Q529 725 591.5 704.5 Q654 684 704.5 647 Q755 610 792 557.5 Q829 505 853 442 L774 442 Z M492 350 L678 83 L578 83 L437 293 L373 228 L373 83 L293 83 L293 532 L373 532 L373 325 L567 532 L670 532 L492 350 Z " />
<glyph glyph-name="uni321C" unicode="&#x321c;" horiz-adv-x="910" d="M80 274 Q80 160 110 48 Q140 -64 217 -170 L174 -170 Q99 -81 63 32 Q27 145 27 279 L27 319 Q27 453 63 565 Q99 677 174 766 L217 766 Q143 666 111.5 555.5 Q80 445 80 324 L80 274 Z M830 324 Q830 445 798.5 555.5 Q767 666 693 766 L736 766 Q811 677 847 565 Q883 453 883 319 L883 279 Q883 145 847 32 Q811 -81 736 -170 L693 -170 Q770 -64 800 48 Q830 160 830 274 L830 324 Z M675 590 L675 548 L480 548 L480 533 Q480 499 495.5 476.5 Q511 454 540.5 436 Q570 418 611.5 401.5 Q653 385 704 364 L685 324 Q638 343 598 361.5 Q558 380 528 396.5 Q498 413 479 426.5 Q460 440 456 450 Q451 439 432 425.5 Q413 412 382.5 396.5 Q352 381 311.5 363 Q271 345 223 324 Q221 329 216.5 338 Q212 347 208 355 Q204 363 202.5 366.5 Q201 370 204 364 Q254 385 295.5 402 Q337 419 366.5 437 Q396 455 412 477.5 Q428 500 428 533 L428 548 L234 548 L234 590 L675 590 Z M748 263 L748 221 L479 221 L479 -7 L430 -7 L430 221 L161 221 L161 263 L748 263 Z " />
<glyph glyph-name="uni2116" unicode="&#x2116;" horiz-adv-x="920" d="M682 510 Q765 510 802 459.5 Q839 409 839 323 L839 285 Q839 199 802 149 Q765 99 682 99 Q598 99 561 149 Q524 199 524 285 L524 323 Q524 411 561 460.5 Q598 510 682 510 Z M146 695 L394 80 Q396 73 399 64 Q402 55 404 45 L404 695 L448 695 L448 -26 L392 -26 L144 589 Q142 594 139 604 Q136 614 134 624 L134 -26 L90 -26 L90 695 L146 695 Z M682 140 Q742 140 768.5 177.5 Q795 215 795 290 L795 319 Q795 394 768.5 430.5 Q742 467 682 467 Q621 467 594.5 430.5 Q568 394 568 319 L568 290 Q568 215 594.5 177.5 Q621 140 682 140 Z M540 25 L825 25 L825 -26 L540 -26 L540 25 Z " />
<glyph glyph-name="uni33C7" unicode="&#x33c7;" horiz-adv-x="920" d="M838 32 L879 32 L879 -26 L838 -26 L838 32 Z M645 -37 Q588 -37 551.5 -14.5 Q515 8 493 50.5 Q471 93 462.5 154.5 Q454 216 454 293 L454 376 Q454 454 463 515.5 Q472 577 494 619 Q516 661 552.5 683.5 Q589 706 645 706 Q701 706 738 683.5 Q775 661 796.5 619 Q818 577 827 515.5 Q836 454 836 376 L836 293 Q836 216 827.5 154.5 Q819 93 797 50.5 Q775 8 738.5 -14.5 Q702 -37 645 -37 Z M645 665 Q601 665 573 644.5 Q545 624 529 586 Q513 548 506.5 494.5 Q500 441 500 375 L500 294 Q500 228 506.5 174.5 Q513 121 529 83 Q545 45 573 24.5 Q601 4 645 4 Q688 4 716 24.5 Q744 45 760.5 83 Q777 121 783.5 174.5 Q790 228 790 294 L790 375 Q790 441 783.5 494.5 Q777 548 760.5 586 Q744 624 716 644.5 Q688 665 645 665 Z M437 44 Q413 13 370.5 -12 Q328 -37 267 -37 Q203 -37 160 -14 Q117 9 91.5 52 Q66 95 55 157.5 Q44 220 44 300 L44 388 Q44 461 56 519.5 Q68 578 94 619.5 Q120 661 160.5 683.5 Q201 706 258 706 Q294 706 321.5 698.5 Q349 691 369.5 680.5 Q390 670 403 659 Q416 648 424 641 L394 603 Q365 631 335.5 646 Q306 661 260 661 Q205 661 171.5 636 Q138 611 120 571 Q102 531 96 482.5 Q90 434 90 388 L90 303 Q90 234 98.5 179.5 Q107 125 128 86.5 Q149 48 183.5 28 Q218 8 269 8 Q304 8 342 25 Q380 42 404 75 L437 44 Z " />
<glyph glyph-name="trademark" unicode="&#x2122;" horiz-adv-x="717" d="M341 695 L397 695 L502 473 L503 473 L605 695 L662 695 L662 369 L625 369 L625 655 L624 655 L522 435 L483 435 L378 655 L377 655 L377 369 L341 369 L341 695 Z M143 659 L30 659 L30 695 L294 695 L294 659 L181 659 L181 369 L143 369 L143 659 Z " />
<glyph glyph-name="uni33C2" unicode="&#x33c2;" horiz-adv-x="910" d="M250 -26 L214 -26 L214 24 Q204 2 183 -15.5 Q162 -33 124 -33 Q82 -33 53 1.5 Q24 36 24 111 L24 140 Q24 177 35 204.5 Q46 232 64.5 249 Q83 266 107 274.5 Q131 283 158 283 L206 283 L206 362 Q206 403 200.5 426.5 Q195 450 185.5 462 Q176 474 164 477 Q152 480 139 480 Q117 480 98 471 Q79 462 58 441 L31 473 Q51 493 79 508 Q107 523 139 523 Q161 523 181 517 Q201 511 216.5 494.5 Q232 478 241 449 Q250 420 250 374 L250 -26 Z M207 246 L153 246 Q135 246 120 241 Q105 236 93.5 223 Q82 210 75.5 189 Q69 168 69 136 L69 118 Q69 82 74.5 60 Q80 38 89 25.5 Q98 13 109 8.5 Q120 4 131 4 Q152 4 166.5 11.5 Q181 19 190 31 Q199 43 203 58 Q207 73 207 88 L207 246 Z M366 513 L409 513 L409 457 Q423 487 451.5 505 Q480 523 508 523 Q521 523 535 520.5 Q549 518 562 510.5 Q575 503 585.5 489 Q596 475 602 453 Q615 484 641.5 503.5 Q668 523 706 523 Q751 523 779.5 491.5 Q808 460 808 388 L808 -26 L764 -26 L764 370 Q764 422 750.5 451.5 Q737 481 694 481 Q671 481 654.5 470.5 Q638 460 628 444.5 Q618 429 613.5 410 Q609 391 609 374 L609 -26 L565 -26 L565 379 Q565 432 552 456.5 Q539 481 498 481 Q476 481 459.5 471 Q443 461 432 445 Q421 429 415.5 408.5 Q410 388 410 368 L410 -26 L366 -26 L366 513 Z M840 32 L881 32 L881 -26 L840 -26 L840 32 Z M294 32 L335 32 L335 -26 L294 -26 L294 32 Z " />
<glyph glyph-name="uni33D8" unicode="&#x33d8;" horiz-adv-x="910" d="M91 -240 L47 -240 L47 513 L85 513 L85 457 Q98 489 122.5 506 Q147 523 178 523 Q238 523 262.5 469.5 Q287 416 287 302 L287 187 Q287 123 279.5 80.5 Q272 38 258 12.5 Q244 -13 224.5 -23.5 Q205 -34 182 -34 Q152 -34 127 -16.5 Q102 1 91 43 L91 -240 Z M243 302 Q243 335 240 367 Q237 399 229 424.5 Q221 450 207.5 465.5 Q194 481 173 481 Q145 481 129 467 Q113 453 104.5 431.5 Q96 410 93.5 384 Q91 358 91 334 L91 163 Q91 139 96 112 Q101 85 111.5 62 Q122 39 137.5 23.5 Q153 8 173 8 Q194 8 208 17.5 Q222 27 229.5 49 Q237 71 240 105.5 Q243 140 243 191 L243 302 Z M297 32 L338 32 L338 -26 L297 -26 L297 32 Z M838 32 L879 32 L879 -26 L838 -26 L838 32 Z M378 513 L421 513 L421 457 Q435 487 462 505 Q489 523 517 523 Q530 523 543.5 520.5 Q557 518 569.5 510.5 Q582 503 592 489 Q602 475 608 453 Q621 484 646 503.5 Q671 523 709 523 Q753 523 780.5 491.5 Q808 460 808 388 L808 -26 L764 -26 L764 370 Q764 393 762 413 Q760 433 753 448 Q746 463 732.5 472 Q719 481 697 481 Q674 481 658 470.5 Q642 460 632.5 444.5 Q623 429 619 410 Q615 391 615 374 L615 -26 L571 -26 L571 379 Q571 430 559 455.5 Q547 481 507 481 Q485 481 469 471 Q453 461 442.5 445 Q432 429 427 408.5 Q422 388 422 368 L422 -26 L378 -26 L378 513 Z " />
<glyph glyph-name="uni2121" unicode="&#x2121;" horiz-adv-x="1048" d="M678 513 L678 473 L449 473 L449 273 L657 273 L657 233 L449 233 L449 14 L685 14 L685 -26 L405 -26 L405 513 L678 513 Z M207 -26 L207 655 L12 655 L12 695 L449 695 L449 655 L250 655 L250 -26 L207 -26 Z M815 513 L815 14 L1036 14 L1036 -26 L771 -26 L771 513 L815 513 Z " />
<glyph glyph-name="uniFF01" unicode="&#xff01;" horiz-adv-x="910" d="M420 34 L490 34 L490 -50 L420 -50 L420 34 Z M437 145 L429 705 L481 705 L473 145 L437 145 Z " />
<glyph glyph-name="uniFF02" unicode="&#xff02;" horiz-adv-x="910" d="M375 488 L367 726 L419 726 L411 488 L375 488 Z M499 488 L491 726 L543 726 L535 488 L499 488 Z " />
<glyph glyph-name="uniFF03" unicode="&#xff03;" horiz-adv-x="910" d="M671 248 L671 210 L554 210 L520 -26 L482 -26 L516 210 L359 210 L326 -26 L287 -26 L321 210 L208 210 L208 248 L325 248 L350 426 L239 426 L239 464 L355 464 L388 695 L426 695 L393 464 L549 464 L582 695 L621 695 L587 464 L702 464 L702 426 L583 426 L558 248 L671 248 Z M545 426 L388 426 L363 248 L520 248 L545 426 Z " />
<glyph glyph-name="uniFF04" unicode="&#xff04;" horiz-adv-x="910" d="M442 -15 Q379 -13 320.5 6 Q262 25 214 61 L238 95 Q295 52 348 38.5 Q401 25 442 24 L442 325 L432 328 Q363 344 323 362.5 Q283 381 262.5 402 Q242 423 236.5 447 Q231 471 231 497 L231 520 Q231 563 250 593 Q269 623 299.5 642.5 Q330 662 367.5 671.5 Q405 681 442 683 L442 751 L478 751 L478 683 Q540 680 588 663.5 Q636 647 668 624 L645 592 Q613 612 572 627 Q531 642 478 644 L478 359 Q542 342 584 326 Q626 310 650.5 290 Q675 270 685 244.5 Q695 219 695 183 L695 157 Q695 124 680.5 94 Q666 64 638 41 Q610 18 570 3.5 Q530 -11 478 -14 L478 -93 L442 -93 L442 -15 Z M654 182 Q654 206 647.5 224.5 Q641 243 622 258.5 Q603 274 568.5 287.5 Q534 301 478 316 L478 25 Q519 28 551.5 39 Q584 50 607 68 Q630 86 642 109 Q654 132 654 158 L654 182 Z M272 498 Q272 475 278 457 Q284 439 302 424 Q320 409 353.5 395.5 Q387 382 442 368 L442 644 Q414 642 384 635 Q354 628 329 613 Q304 598 288 575 Q272 552 272 519 L272 498 Z " />
<glyph glyph-name="uniFF05" unicode="&#xff05;" horiz-adv-x="910" d="M216 -25 L653 695 L696 695 L260 -25 L216 -25 Z M254 700 Q325 700 364.5 658 Q404 616 404 537 L404 489 Q404 410 364.5 368 Q325 326 254 326 Q183 326 143.5 368 Q104 410 104 489 L104 537 Q104 616 143.5 658 Q183 700 254 700 Z M254 363 Q276 363 296 369 Q316 375 331 390 Q346 405 355 429.5 Q364 454 364 491 L364 535 Q364 572 355 596.5 Q346 621 331 636 Q316 651 296 657 Q276 663 254 663 Q232 663 212 657 Q192 651 177 636 Q162 621 153 596.5 Q144 572 144 535 L144 491 Q144 454 153 429.5 Q162 405 177 390 Q192 375 212 369 Q232 363 254 363 Z M656 340 Q727 340 766.5 298 Q806 256 806 177 L806 129 Q806 50 766.5 8 Q727 -34 656 -34 Q585 -34 545.5 8 Q506 50 506 129 L506 177 Q506 256 545.5 298 Q585 340 656 340 Z M656 3 Q678 3 698 9 Q718 15 733 30 Q748 45 757 69.5 Q766 94 766 131 L766 175 Q766 212 757 236.5 Q748 261 733 276 Q718 291 698 297 Q678 303 656 303 Q634 303 614 297 Q594 291 579 276 Q564 261 555 236.5 Q546 212 546 175 L546 131 Q546 94 555 69.5 Q564 45 579 30 Q594 15 614 9 Q634 3 656 3 Z " />
<glyph glyph-name="uniFF06" unicode="&#xff06;" horiz-adv-x="910" d="M631 66 Q589 18 530.5 -9.5 Q472 -37 399 -37 L393 -37 Q348 -37 307 -24.5 Q266 -12 235.5 10.5 Q205 33 187 64 Q169 95 169 131 L169 156 Q169 192 179 219 Q189 246 212.5 270 Q236 294 273.5 318.5 Q311 343 367 373 L347 397 Q330 417 314 436 Q298 455 286 474.5 Q274 494 266.5 514 Q259 534 259 557 L259 572 Q259 595 269 618.5 Q279 642 299 661.5 Q319 681 350.5 693.5 Q382 706 426 706 Q467 706 498 693.5 Q529 681 550 662 Q571 643 581.5 619.5 Q592 596 592 574 L592 555 Q592 530 584 507 Q576 484 557.5 461 Q539 438 507 414 Q475 390 427 363 L629 127 Q658 172 672.5 227 Q687 282 688 341 L727 341 Q725 269 707 207 Q689 145 655 96 L760 -26 L711 -26 L631 66 Z M397 0 Q465 0 517 25.5 Q569 51 606 96 L392 344 Q351 321 317.5 301.5 Q284 282 260 260.5 Q236 239 223 213 Q210 187 210 152 L210 134 Q210 107 224 82.5 Q238 58 263 40 Q288 22 322 11 Q356 0 397 0 Z M299 559 Q299 538 307 519 Q315 500 329 480 Q343 460 361.5 438.5 Q380 417 402 392 Q445 416 474 436.5 Q503 457 520.5 477 Q538 497 545.5 516.5 Q553 536 553 559 L553 570 Q553 613 519 641 Q485 669 426 669 Q369 669 334 642 Q299 615 299 570 L299 559 Z " />
<glyph glyph-name="uniFF07" unicode="&#xff07;" horiz-adv-x="910" d="M437 488 L429 726 L481 726 L473 488 L437 488 Z " />
<glyph glyph-name="uniFF08" unicode="&#xff08;" horiz-adv-x="910" d="M744 274 Q744 160 775 48 Q806 -64 883 -170 L841 -170 Q766 -81 730.5 35 Q695 151 695 279 L695 319 Q695 447 730.5 562 Q766 677 841 766 L883 766 Q809 666 776.5 555.5 Q744 445 744 324 L744 274 Z " />
<glyph glyph-name="uniFF09" unicode="&#xff09;" horiz-adv-x="910" d="M166 324 Q166 445 133.5 555.5 Q101 666 27 766 L69 766 Q144 677 179.5 562 Q215 447 215 319 L215 279 Q215 151 179.5 35 Q144 -81 69 -170 L27 -170 Q104 -64 135 48 Q166 160 166 274 L166 324 Z " />
<glyph glyph-name="uniFF0A" unicode="&#xff0a;" horiz-adv-x="910" d="M298 418 L277 455 L427 534 L277 612 L298 649 L439 561 L431 729 L477 729 L470 561 L612 649 L632 612 L482 534 L632 455 L612 418 L470 506 L477 339 L431 339 L439 506 L298 418 Z " />
<glyph glyph-name="uniFF0B" unicode="&#xff0b;" horiz-adv-x="910" d="M477 565 L477 341 L695 341 L695 299 L477 299 L477 61 L433 61 L433 299 L215 299 L215 341 L433 341 L433 565 L477 565 Z " />
<glyph glyph-name="uniFF0C" unicode="&#xff0c;" horiz-adv-x="910" d="M439 48 L506 48 L447 -175 L403 -175 L439 48 Z " />
<glyph glyph-name="uniFF0D" unicode="&#xff0d;" horiz-adv-x="910" d="M306 356 L604 356 L604 312 L306 312 L306 356 Z " />
<glyph glyph-name="uniFF0E" unicode="&#xff0e;" horiz-adv-x="910" d="M413 43 L497 43 L497 -47 L413 -47 L413 43 Z " />
<glyph glyph-name="uniFF0F" unicode="&#xff0f;" horiz-adv-x="910" d="M627 757 L327 -122 L283 -122 L583 757 L627 757 Z " />
<glyph glyph-name="uniFF10" unicode="&#xff10;" horiz-adv-x="910" d="M690 279 Q690 126 635 44.5 Q580 -37 453 -37 Q390 -37 345.5 -16 Q301 5 273.5 45.5 Q246 86 233 144.5 Q220 203 220 279 L220 391 Q220 542 274.5 624 Q329 706 453 706 Q516 706 560.5 685 Q605 664 634 624 Q663 584 676.5 525.5 Q690 467 690 391 L690 279 Z M647 392 Q647 525 603 595.5 Q559 666 453 666 Q401 666 365 648 Q329 630 306.5 595 Q284 560 273.5 509 Q263 458 263 392 L263 278 Q263 211 273.5 160 Q284 109 306.5 74 Q329 39 365 21 Q401 3 453 3 Q506 3 543 21 Q580 39 603 73.5 Q626 108 636.5 159.5 Q647 211 647 278 L647 392 Z " />
<glyph glyph-name="uniFF11" unicode="&#xff11;" horiz-adv-x="910" d="M544 -26 L544 635 L342 513 L322 548 L562 695 L588 695 L588 -26 L544 -26 Z " />
<glyph glyph-name="uniFF12" unicode="&#xff12;" horiz-adv-x="910" d="M537 367 Q561 395 575 416.5 Q589 438 596 455.5 Q603 473 605 488.5 Q607 504 607 522 L607 530 Q607 593 567 629.5 Q527 666 449 666 Q392 666 347.5 638.5 Q303 611 268 548 L232 569 Q246 595 265.5 619.5 Q285 644 311 663.5 Q337 683 371 694.5 Q405 706 447 706 Q492 706 529.5 694 Q567 682 594 659.5 Q621 637 635.5 604.5 Q650 572 650 532 L650 522 Q650 497 646 476 Q642 455 632 434 Q622 413 606.5 390.5 Q591 368 568 341 L293 16 L677 16 L677 -26 L233 -26 L233 11 L537 367 Z " />
<glyph glyph-name="uniFF13" unicode="&#xff13;" horiz-adv-x="910" d="M249 594 Q261 614 279.5 634 Q298 654 323.5 670 Q349 686 381.5 696 Q414 706 453 706 Q500 706 538.5 693 Q577 680 604 656.5 Q631 633 646 599.5 Q661 566 661 526 L661 516 Q661 495 655 471.5 Q649 448 634 425.5 Q619 403 594 384 Q569 365 530 352 Q606 339 647.5 294 Q689 249 689 185 L689 170 Q689 132 677 95 Q665 58 637 29 Q609 0 563.5 -18.5 Q518 -37 452 -37 Q389 -37 330.5 -17.5 Q272 2 221 43 L246 80 Q298 38 351 21 Q404 4 452 4 Q507 4 544 20 Q581 36 603.5 60.5 Q626 85 635.5 114 Q645 143 645 169 L645 182 Q645 229 625.5 258 Q606 287 577.5 303 Q549 319 517 324.5 Q485 330 460 330 L380 330 L380 370 L458 370 Q482 370 510 378 Q538 386 562 403.5 Q586 421 601.5 449.5 Q617 478 617 519 L617 527 Q617 588 574.5 626.5 Q532 665 454 665 Q409 665 364 645 Q319 625 284 570 L249 594 Z " />
<glyph glyph-name="uniFF14" unicode="&#xff14;" horiz-adv-x="910" d="M605 422 L605 184 L717 184 L717 141 L605 141 L605 -26 L561 -26 L561 141 L193 141 L193 184 L554 695 L606 695 L244 184 L561 184 L561 422 L605 422 Z " />
<glyph glyph-name="uniFF15" unicode="&#xff15;" horiz-adv-x="910" d="M645 191 Q645 285 598 328 Q551 371 465 371 Q410 371 373.5 351 Q337 331 311 305 L261 305 L284 695 L644 695 L644 654 L324 654 L307 349 Q333 375 376 393.5 Q419 412 470 412 Q518 412 558 398 Q598 384 627.5 357 Q657 330 673 289 Q689 248 689 194 L689 175 Q689 139 677 101 Q665 63 637 32.5 Q609 2 563.5 -17.5 Q518 -37 452 -37 Q389 -37 330.5 -17.5 Q272 2 221 43 L246 80 Q298 38 351 21 Q404 4 452 4 Q507 4 544 21 Q581 38 603.5 63.5 Q626 89 635.5 118.5 Q645 148 645 174 L645 191 Z " />
<glyph glyph-name="uniFF16" unicode="&#xff16;" horiz-adv-x="910" d="M643 622 Q608 644 571 655 Q534 666 487 666 Q426 666 385 640 Q344 614 318.5 567.5 Q293 521 280.5 455 Q268 389 264 310 Q276 338 296.5 360 Q317 382 343 397.5 Q369 413 400 421 Q431 429 464 429 Q514 429 555 414 Q596 399 625.5 370.5 Q655 342 671 301.5 Q687 261 687 210 L687 188 Q687 133 669 91 Q651 49 620 20.5 Q589 -8 547.5 -22.5 Q506 -37 459 -37 Q413 -37 370 -20.5 Q327 -4 294 32 Q261 68 241.5 124.5 Q222 181 222 261 L222 279 Q222 393 239.5 473.5 Q257 554 290.5 606 Q324 658 372.5 682 Q421 706 484 706 Q541 706 586.5 691 Q632 676 662 657 L643 622 Z M272 208 Q272 162 286.5 124 Q301 86 326 59 Q351 32 385.5 17.5 Q420 3 459 3 Q498 3 531.5 15 Q565 27 589.5 50.5 Q614 74 628.5 108.5 Q643 143 643 189 L643 202 Q643 293 596.5 342 Q550 391 461 391 Q419 391 384 377 Q349 363 324 339 Q299 315 285.5 282.5 Q272 250 272 214 L272 208 Z " />
<glyph glyph-name="uniFF17" unicode="&#xff17;" horiz-adv-x="910" d="M387 -26 L338 -26 L642 654 L219 654 L219 695 L691 695 L691 664 L387 -26 Z " />
<glyph glyph-name="uniFF18" unicode="&#xff18;" horiz-adv-x="910" d="M289 511 Q289 479 300.5 451.5 Q312 424 333.5 404 Q355 384 386 372.5 Q417 361 456 361 Q495 361 525.5 372.5 Q556 384 577.5 404 Q599 424 610 451.5 Q621 479 621 511 L621 524 Q621 554 610 580 Q599 606 577.5 625 Q556 644 525 655 Q494 666 455 666 Q373 666 331 625 Q289 584 289 524 L289 511 Z M268 152 Q268 122 280.5 95 Q293 68 316.5 47.5 Q340 27 375 15 Q410 3 455 3 Q501 3 536 15 Q571 27 594.5 47.5 Q618 68 630 95 Q642 122 642 152 L642 165 Q642 201 628.5 230.5 Q615 260 590 280.5 Q565 301 531 312.5 Q497 324 455 324 Q414 324 380 313 Q346 302 321 281.5 Q296 261 282 231.5 Q268 202 268 165 L268 152 Z M226 170 Q226 230 263 277 Q300 324 370 342 Q318 365 283.5 406 Q249 447 249 512 L249 530 Q249 569 264.5 601 Q280 633 307.5 656.5 Q335 680 373 693 Q411 706 455 706 Q499 706 537 693 Q575 680 602.5 656.5 Q630 633 645.5 601 Q661 569 661 530 L661 512 Q661 447 626 405 Q591 363 538 342 Q610 323 647 276.5 Q684 230 684 170 L684 153 Q684 110 667 75 Q650 40 619.5 15 Q589 -10 547 -23.5 Q505 -37 455 -37 Q405 -37 363 -23.5 Q321 -10 290.5 15 Q260 40 243 75 Q226 110 226 153 L226 170 Z " />
<glyph glyph-name="uniFF19" unicode="&#xff19;" horiz-adv-x="910" d="M266 47 Q301 25 338 14 Q375 3 422 3 Q483 3 524.5 25 Q566 47 592 91 Q618 135 630.5 201 Q643 267 645 356 Q633 328 612.5 306 Q592 284 566 268.5 Q540 253 509 245 Q478 237 445 237 Q395 237 353.5 252 Q312 267 283 295.5 Q254 324 238 364.5 Q222 405 222 456 L222 481 Q222 536 240 578 Q258 620 289 648.5 Q320 677 361.5 691.5 Q403 706 450 706 Q498 706 541 689.5 Q584 673 616.5 637.5 Q649 602 668 546 Q687 490 687 410 L687 385 Q687 263 669 182 Q651 101 617 52 Q583 3 534.5 -17 Q486 -37 425 -37 Q368 -37 322.5 -22 Q277 -7 247 12 L266 47 Z M637 461 Q637 508 623 546 Q609 584 584.5 610.5 Q560 637 525.5 651.5 Q491 666 450 666 Q411 666 377.5 654 Q344 642 319.5 618.5 Q295 595 280.5 560.5 Q266 526 266 480 L266 464 Q266 373 312.5 324 Q359 275 448 275 Q490 275 525 289 Q560 303 585 327 Q610 351 623.5 383.5 Q637 416 637 452 L637 461 Z " />
<glyph glyph-name="uniFF1A" unicode="&#xff1a;" horiz-adv-x="910" d="M413 122 L497 122 L497 32 L413 32 L413 122 Z M413 560 L497 560 L497 470 L413 470 L413 560 Z " />
<glyph glyph-name="uniFF1B" unicode="&#xff1b;" horiz-adv-x="910" d="M425 560 L509 560 L509 470 L425 470 L425 560 Z M437 128 L504 128 L445 -95 L401 -95 L437 128 Z " />
<glyph glyph-name="uniFF1C" unicode="&#xff1c;" horiz-adv-x="910" d="M265 321 L689 97 L689 50 L221 302 L221 341 L689 593 L689 546 L265 323 L265 321 Z " />
<glyph glyph-name="uniFF1D" unicode="&#xff1d;" horiz-adv-x="910" d="M234 448 L676 448 L676 403 L234 403 L234 448 Z M234 237 L676 237 L676 192 L234 192 L234 237 Z " />
<glyph glyph-name="uniFF1E" unicode="&#xff1e;" horiz-adv-x="910" d="M645 323 L221 546 L221 593 L689 341 L689 302 L221 50 L221 97 L645 321 L645 323 Z " />
<glyph glyph-name="uniFF1F" unicode="&#xff1f;" horiz-adv-x="910" d="M414 141 L414 189 Q414 224 428.5 252.5 Q443 281 465.5 305.5 Q488 330 513.5 352.5 Q539 375 561.5 399 Q584 423 598.5 449 Q613 475 613 508 L613 527 Q613 562 600 587.5 Q587 613 565.5 630 Q544 647 515.5 655.5 Q487 664 456 664 Q402 664 360.5 644 Q319 624 282 585 L253 614 Q268 630 288 646.5 Q308 663 333.5 676 Q359 689 389 697.5 Q419 706 454 706 Q548 706 602.5 658 Q657 610 657 528 L657 508 Q657 470 642 440 Q627 410 605 384.5 Q583 359 556.5 337 Q530 315 508 292 Q486 269 471 243.5 Q456 218 456 186 L456 141 L414 141 Z M400 34 L470 34 L470 -50 L400 -50 L400 34 Z " />
<glyph glyph-name="uniFF20" unicode="&#xff20;" horiz-adv-x="910" d="M717 48 Q677 48 642.5 69 Q608 90 594 135 L593 135 Q582 111 563 94.5 Q544 78 522 68.5 Q500 59 477.5 54.5 Q455 50 437 50 Q352 50 306.5 100.5 Q261 151 261 242 L261 319 Q261 411 311 460.5 Q361 510 440 510 Q485 510 525.5 493 Q566 476 585 446 L585 502 L630 502 L630 172 Q630 151 637.5 135.5 Q645 120 657.5 110 Q670 100 686 95 Q702 90 718 90 Q743 90 766 100 Q789 110 807 134 Q825 158 835.5 197 Q846 236 846 294 L846 308 Q846 394 821.5 464.5 Q797 535 747.5 585.5 Q698 636 623 664 Q548 692 446 692 Q360 692 289.5 664 Q219 636 169 584.5 Q119 533 91.5 459.5 Q64 386 64 296 L64 279 Q64 186 90 110.5 Q116 35 166.5 -19 Q217 -73 292 -102.5 Q367 -132 465 -132 Q544 -132 620 -115.5 Q696 -99 759 -65 L776 -103 Q713 -137 635.5 -155 Q558 -173 468 -173 Q366 -173 283 -142 Q200 -111 142 -53 Q84 5 52.5 89 Q21 173 21 278 L21 297 Q21 391 50 471 Q79 551 134 609.5 Q189 668 268 700.5 Q347 733 446 733 Q555 733 638 702 Q721 671 776.5 615 Q832 559 860.5 481.5 Q889 404 889 311 L889 297 Q889 256 881.5 212.5 Q874 169 854.5 132 Q835 95 802 71.5 Q769 48 717 48 Z M305 247 Q305 203 315 173 Q325 143 343.5 125 Q362 107 387.5 99 Q413 91 444 91 Q512 91 549 132 Q586 173 586 234 L586 360 Q586 380 575.5 399.5 Q565 419 546 434.5 Q527 450 501 459.5 Q475 469 444 469 Q377 469 341 428 Q305 387 305 314 L305 247 Z " />
<glyph glyph-name="uniFF21" unicode="&#xff21;" horiz-adv-x="910" d="M618 207 L292 207 L204 -26 L156 -26 L434 695 L478 695 L753 -26 L704 -26 L618 207 Z M307 246 L603 246 L517 479 Q501 523 485 564.5 Q469 606 456 648 Q444 606 428.5 564.5 Q413 523 396 479 L307 246 Z " />
<glyph glyph-name="uniFF22" unicode="&#xff22;" horiz-adv-x="910" d="M217 695 L440 695 Q554 695 607 652 Q660 609 660 520 L660 497 Q660 473 653.5 450.5 Q647 428 633 409 Q619 390 596.5 375.5 Q574 361 542 353 Q614 343 653.5 304 Q693 265 693 190 L693 163 Q693 74 641.5 24 Q590 -26 473 -26 L217 -26 L217 695 Z M260 14 L477 14 Q648 14 648 163 L648 187 Q648 257 603 294.5 Q558 332 450 332 L260 332 L260 14 Z M260 655 L260 371 L449 371 Q524 371 570 401.5 Q616 432 616 500 L616 520 Q616 584 577 619.5 Q538 655 444 655 L260 655 Z " />
<glyph glyph-name="uniFF23" unicode="&#xff23;" horiz-adv-x="910" d="M710 45 Q699 35 679.5 21 Q660 7 631.5 -6 Q603 -19 565.5 -28 Q528 -37 482 -37 Q406 -37 352.5 -12.5 Q299 12 265 57 Q231 102 215 165.5 Q199 229 199 306 L199 383 Q199 457 216 517 Q233 577 267 619 Q301 661 352 683.5 Q403 706 470 706 Q540 706 596 687 Q652 668 692 639 L668 605 Q624 635 579 649.5 Q534 664 470 664 Q416 664 373.5 645 Q331 626 302.5 591 Q274 556 259 506 Q244 456 244 395 L244 295 Q244 152 305 78.5 Q366 5 484 5 Q520 5 550.5 12 Q581 19 606.5 30 Q632 41 651.5 54 Q671 67 684 78 L710 45 Z " />
<glyph glyph-name="uniFF24" unicode="&#xff24;" horiz-adv-x="910" d="M418 695 Q558 695 631.5 615.5 Q705 536 705 386 L705 283 Q705 208 684.5 150.5 Q664 93 626 54 Q588 15 535 -5.5 Q482 -26 418 -26 L205 -26 L205 695 L418 695 Z M249 16 L423 16 Q472 16 515 32.5 Q558 49 590 82.5 Q622 116 641 166 Q660 216 660 283 L660 381 Q660 518 598 585.5 Q536 653 422 653 L249 653 L249 16 Z " />
<glyph glyph-name="uniFF25" unicode="&#xff25;" horiz-adv-x="910" d="M662 695 L662 654 L285 654 L285 364 L641 364 L641 324 L285 324 L285 15 L669 15 L669 -26 L241 -26 L241 695 L662 695 Z " />
<glyph glyph-name="uniFF26" unicode="&#xff26;" horiz-adv-x="910" d="M661 695 L661 654 L293 654 L293 345 L640 345 L640 305 L293 305 L293 -26 L249 -26 L249 695 L661 695 Z " />
<glyph glyph-name="uniFF27" unicode="&#xff27;" horiz-adv-x="910" d="M670 307 L490 307 L490 349 L713 349 L713 25 Q702 15 681.5 4 Q661 -7 632 -16 Q603 -25 566 -31 Q529 -37 485 -37 Q409 -37 354.5 -12.5 Q300 12 265 57 Q230 102 213.5 165.5 Q197 229 197 306 L197 383 Q197 457 215 517 Q233 577 268 619 Q303 661 354.5 683.5 Q406 706 473 706 Q543 706 600.5 687 Q658 668 698 639 L674 605 Q630 635 583.5 649.5 Q537 664 473 664 Q419 664 376 645 Q333 626 303 591 Q273 556 257.5 506 Q242 456 242 395 L242 295 Q242 152 305.5 78.5 Q369 5 487 5 Q539 5 589 16.5 Q639 28 670 50 L670 307 Z " />
<glyph glyph-name="uniFF28" unicode="&#xff28;" horiz-adv-x="910" d="M700 695 L700 -26 L656 -26 L656 332 L253 332 L253 -26 L209 -26 L209 695 L253 695 L253 373 L656 373 L656 695 L700 695 Z " />
<glyph glyph-name="uniFF29" unicode="&#xff29;" horiz-adv-x="910" d="M477 695 L477 -26 L433 -26 L433 695 L477 695 Z " />
<glyph glyph-name="uniFF2A" unicode="&#xff2a;" horiz-adv-x="910" d="M624 150 Q624 100 610.5 64.5 Q597 29 573.5 6.5 Q550 -16 517.5 -26.5 Q485 -37 447 -37 Q401 -37 360 -24.5 Q319 -12 286 14 L308 49 Q340 24 374.5 13.5 Q409 3 445 3 Q514 3 547 40 Q580 77 580 151 L580 695 L624 695 L624 150 Z " />
<glyph glyph-name="uniFF2B" unicode="&#xff2b;" horiz-adv-x="910" d="M391 390 L707 -26 L653 -26 L360 359 L246 242 L246 -26 L202 -26 L202 695 L246 695 L246 298 L629 695 L689 695 L391 390 Z " />
<glyph glyph-name="uniFF2C" unicode="&#xff2c;" horiz-adv-x="910" d="M290 695 L290 15 L664 15 L664 -26 L246 -26 L246 695 L290 695 Z " />
<glyph glyph-name="uniFF2D" unicode="&#xff2d;" horiz-adv-x="910" d="M234 507 Q202 569 178 625 L178 -26 L135 -26 L135 695 L185 695 L457 144 L723 695 L775 695 L775 -26 L732 -26 L732 617 Q718 584 704 555 Q690 526 673 494 L475 94 L437 94 L234 507 Z " />
<glyph glyph-name="uniFF2E" unicode="&#xff2e;" horiz-adv-x="910" d="M268 695 L627 84 Q633 74 642.5 55 Q652 36 658 23 L658 695 L701 695 L701 -26 L641 -26 L282 585 Q274 599 265.5 616 Q257 633 251 646 L251 -26 L208 -26 L208 695 L268 695 Z " />
<glyph glyph-name="uniFF2F" unicode="&#xff2f;" horiz-adv-x="910" d="M732 289 Q732 218 714.5 158 Q697 98 662.5 54.5 Q628 11 576 -13 Q524 -37 455 -37 Q386 -37 334 -13 Q282 11 247.5 54.5 Q213 98 195.5 158 Q178 218 178 289 L178 380 Q178 451 195.5 511 Q213 571 247.5 614.5 Q282 658 334 682 Q386 706 455 706 Q524 706 576 682 Q628 658 662.5 614.5 Q697 571 714.5 511 Q732 451 732 380 L732 289 Z M687 379 Q687 519 625 592 Q563 665 455 665 Q347 665 285 592 Q223 519 223 379 L223 290 Q223 150 285 77 Q347 4 455 4 Q563 4 625 77 Q687 150 687 290 L687 379 Z " />
<glyph glyph-name="uniFF30" unicode="&#xff30;" horiz-adv-x="910" d="M226 695 L451 695 Q565 695 624 643 Q683 591 683 491 L683 469 Q683 367 622.5 315.5 Q562 264 448 264 L270 264 L270 -26 L226 -26 L226 695 Z M270 654 L270 305 L443 305 Q497 305 534 316.5 Q571 328 594.5 349.5 Q618 371 628 401.5 Q638 432 638 470 L638 489 Q638 526 628 556.5 Q618 587 595.5 608.5 Q573 630 537.5 642 Q502 654 451 654 L270 654 Z " />
<glyph glyph-name="uniFF31" unicode="&#xff31;" horiz-adv-x="910" d="M723 289 Q723 215 705 154 Q687 93 650 49 L735 -35 L705 -66 L620 19 Q588 -8 545.5 -22.5 Q503 -37 449 -37 Q380 -37 328.5 -13 Q277 11 243 54.5 Q209 98 192 158 Q175 218 175 289 L175 380 Q175 451 192 511 Q209 571 243 614.5 Q277 658 328.5 682 Q380 706 449 706 Q518 706 569.5 682 Q621 658 655 614.5 Q689 571 706 511 Q723 451 723 380 L723 289 Z M678 379 Q678 519 617.5 592 Q557 665 449 665 Q341 665 280.5 592 Q220 519 220 379 L220 290 Q220 150 280.5 77 Q341 4 449 4 Q534 4 590 49 L482 158 L512 189 L620 80 Q648 116 663 168.5 Q678 221 678 290 L678 379 Z " />
<glyph glyph-name="uniFF32" unicode="&#xff32;" horiz-adv-x="910" d="M218 695 L437 695 Q491 695 535 684.5 Q579 674 610 651.5 Q641 629 657.5 594 Q674 559 674 509 L674 487 Q674 411 636.5 366 Q599 321 533 304 L692 -26 L645 -26 L489 295 Q463 292 434 292 L262 292 L262 -26 L218 -26 L218 695 Z M262 654 L262 333 L429 333 Q533 333 581 372.5 Q629 412 629 488 L629 507 Q629 582 582 618 Q535 654 437 654 L262 654 Z " />
<glyph glyph-name="uniFF33" unicode="&#xff33;" horiz-adv-x="910" d="M454 5 Q500 5 536.5 16.5 Q573 28 598.5 47.5 Q624 67 637 92.5 Q650 118 650 146 L650 172 Q650 202 643 224.5 Q636 247 613 264.5 Q590 282 547 297 Q504 312 432 327 Q363 342 323 362 Q283 382 263 405.5 Q243 429 237.5 455 Q232 481 232 507 L232 532 Q232 577 252 610 Q272 643 304 664 Q336 685 376 695.5 Q416 706 457 706 Q529 706 581.5 689.5 Q634 673 668 648 L647 612 Q612 635 565 649.5 Q518 664 457 664 Q425 664 393 656.5 Q361 649 335 632.5 Q309 616 292.5 591 Q276 566 276 531 L276 508 Q276 484 281.5 464 Q287 444 305.5 427 Q324 410 358.5 395 Q393 380 451 367 Q524 350 571 334 Q618 318 645.5 296.5 Q673 275 683.5 245.5 Q694 216 694 173 L694 145 Q694 110 678 77 Q662 44 631.5 18.5 Q601 -7 556.5 -22 Q512 -37 455 -37 Q389 -37 327.5 -18 Q266 1 215 39 L237 76 Q270 53 300 39 Q330 25 357 17.5 Q384 10 408.5 7.5 Q433 5 454 5 Z " />
<glyph glyph-name="uniFF34" unicode="&#xff34;" horiz-adv-x="910" d="M433 -26 L433 654 L193 654 L193 695 L717 695 L717 654 L477 654 L477 -26 L433 -26 Z " />
<glyph glyph-name="uniFF35" unicode="&#xff35;" horiz-adv-x="910" d="M455 4 Q497 4 535 16.5 Q573 29 601 59 Q629 89 645.5 138 Q662 187 662 261 L662 695 L706 695 L706 247 Q706 107 638 35 Q570 -37 455 -37 Q340 -37 272 35 Q204 107 204 247 L204 695 L248 695 L248 261 Q248 187 264.5 138 Q281 89 309 59 Q337 29 375 16.5 Q413 4 455 4 Z " />
<glyph glyph-name="uniFF36" unicode="&#xff36;" horiz-adv-x="910" d="M215 695 L457 27 L697 695 L744 695 L481 -26 L430 -26 L166 695 L215 695 Z " />
<glyph glyph-name="uniFF37" unicode="&#xff37;" horiz-adv-x="910" d="M894 695 L692 -26 L640 -26 L454 639 L270 -26 L218 -26 L16 695 L63 695 L244 32 L430 695 L480 695 L667 33 L850 695 L894 695 Z " />
<glyph glyph-name="uniFF38" unicode="&#xff38;" horiz-adv-x="910" d="M490 349 L732 -26 L678 -26 L459 320 L229 -26 L177 -26 L431 347 L190 695 L242 695 L461 374 L668 695 L718 695 L490 349 Z " />
<glyph glyph-name="uniFF39" unicode="&#xff39;" horiz-adv-x="910" d="M480 273 L480 -26 L436 -26 L436 273 L187 695 L234 695 L459 313 L675 695 L723 695 L480 273 Z " />
<glyph glyph-name="uniFF3A" unicode="&#xff3a;" horiz-adv-x="910" d="M697 660 L248 14 L716 14 L716 -26 L194 -26 L194 9 L643 655 L219 655 L219 695 L697 695 L697 660 Z " />
<glyph glyph-name="uniFF3B" unicode="&#xff3b;" horiz-adv-x="910" d="M870 -170 L664 -170 L664 766 L870 766 L870 728 L705 728 L705 -132 L870 -132 L870 -170 Z " />
<glyph glyph-name="uniFFE6" unicode="&#xffe6;" horiz-adv-x="910" d="M24 391 L133 391 L57 695 L101 695 L174 391 L352 391 L429 695 L477 695 L554 391 L734 391 L808 695 L849 695 L773 391 L885 391 L885 353 L763 353 L669 -26 L620 -26 L524 353 L380 353 L286 -26 L237 -26 L142 353 L24 353 L24 391 Z M646 31 L724 353 L564 353 L646 31 Z M261 30 L342 353 L183 353 L261 30 Z M390 391 L515 391 L452 641 L390 391 Z " />
<glyph glyph-name="uniFF3D" unicode="&#xff3d;" horiz-adv-x="910" d="M40 -132 L205 -132 L205 728 L40 728 L40 766 L246 766 L246 -170 L40 -170 L40 -132 Z " />
<glyph glyph-name="uniFF3E" unicode="&#xff3e;" horiz-adv-x="910" d="M617 401 L455 682 L293 401 L247 401 L436 724 L475 724 L663 401 L617 401 Z " />
<glyph glyph-name="uniFF3F" unicode="&#xff3f;" horiz-adv-x="910" d="M685 -118 L225 -118 L225 -75 L685 -75 L685 -118 Z " />
<glyph glyph-name="uniFF40" unicode="&#xff40;" horiz-adv-x="910" d="M490 571 L378 705 L431 705 L532 571 L490 571 Z " />
<glyph glyph-name="uniFF41" unicode="&#xff41;" horiz-adv-x="910" d="M435 -34 Q398 -34 366 -24 Q334 -14 311 5.5 Q288 25 274.5 53.5 Q261 82 261 120 L261 135 Q261 165 271.5 191.5 Q282 218 304.5 237.5 Q327 257 361 268.5 Q395 280 442 280 L605 280 L605 345 Q605 411 569.5 445 Q534 479 463 479 Q419 479 380.5 464.5 Q342 450 305 425 L284 458 Q319 483 365 500.5 Q411 518 466 518 Q550 518 599 474 Q648 430 648 347 L648 -26 L605 -26 L605 49 L604 49 Q596 35 582 19.5 Q568 4 548 -7 Q526 -19 499 -26.5 Q472 -34 435 -34 Z M605 243 L443 243 Q405 243 378.5 234.5 Q352 226 336 211.5 Q320 197 313 177.5 Q306 158 306 136 L306 120 Q306 87 318 65 Q330 43 348.5 29.5 Q367 16 390.5 10 Q414 4 438 4 Q464 4 488 8.5 Q512 13 535 25 Q567 41 586 69 Q605 97 605 129 L605 243 Z " />
<glyph glyph-name="uniFF42" unicode="&#xff42;" horiz-adv-x="910" d="M288 420 Q308 461 353 489.5 Q398 518 460 518 Q556 518 610.5 460 Q665 402 665 291 L665 193 Q665 137 649.5 95 Q634 53 606 24 Q578 -5 539 -19.5 Q500 -34 453 -34 Q405 -34 358 -14.5 Q311 5 287 42 L287 -26 L245 -26 L245 730 L288 730 L288 420 Z M287 134 Q287 108 299 84.5 Q311 61 333.5 43.5 Q356 26 386.5 15.5 Q417 5 455 5 Q530 5 576 55 Q622 105 622 199 L622 285 Q622 380 581 429.5 Q540 479 456 479 Q427 479 397 468 Q367 457 342.5 436 Q318 415 302.5 384.5 Q287 354 287 315 L287 134 Z " />
<glyph glyph-name="uniFF43" unicode="&#xff43;" horiz-adv-x="910" d="M467 518 Q514 518 558.5 506 Q603 494 637 468 L618 435 Q581 460 544 469.5 Q507 479 467 479 Q382 479 339.5 424.5 Q297 370 297 283 L297 207 Q297 162 307.5 125 Q318 88 339.5 61 Q361 34 394 19.5 Q427 5 471 5 Q528 5 568 20 Q608 35 635 58 L656 25 Q628 2 581.5 -16 Q535 -34 470 -34 Q421 -34 381.5 -19 Q342 -4 313.5 26 Q285 56 269.5 101.5 Q254 147 254 208 L254 280 Q254 334 268.5 378 Q283 422 310 453 Q337 484 376.5 501 Q416 518 467 518 Z " />
<glyph glyph-name="uniFF44" unicode="&#xff44;" horiz-adv-x="910" d="M623 64 Q603 23 557 -5.5 Q511 -34 449 -34 Q352 -34 298.5 24 Q245 82 245 193 L245 291 Q245 346 260.5 388.5 Q276 431 304.5 460 Q333 489 371.5 503.5 Q410 518 457 518 Q505 518 551.5 498.5 Q598 479 622 442 L622 730 L665 730 L665 -26 L623 -26 L623 64 Z M623 350 Q623 376 611 399.5 Q599 423 576.5 440.5 Q554 458 523 468.5 Q492 479 455 479 Q380 479 334 429 Q288 379 288 285 L288 199 Q288 104 329 54.5 Q370 5 454 5 Q483 5 513 16 Q543 27 567.5 48 Q592 69 607.5 99.5 Q623 130 623 169 L623 350 Z " />
<glyph glyph-name="uniFF45" unicode="&#xff45;" horiz-adv-x="910" d="M456 480 Q376 480 330 426 Q284 372 284 277 L284 267 L626 267 Q626 373 583 426.5 Q540 480 456 480 Z M463 4 Q520 4 564 19 Q608 34 635 57 L656 25 Q628 2 578.5 -16 Q529 -34 464 -34 Q407 -34 365 -16 Q323 2 296 34.5 Q269 67 255.5 111 Q242 155 242 206 L242 282 Q242 334 257 377.5 Q272 421 299.5 452.5 Q327 484 366.5 501 Q406 518 456 518 Q509 518 548.5 500 Q588 482 614.5 450 Q641 418 654.5 372.5 Q668 327 668 272 L668 232 L284 232 L284 213 Q284 110 331.5 57 Q379 4 463 4 Z " />
<glyph glyph-name="uniFF46" unicode="&#xff46;" horiz-adv-x="910" d="M395 471 L303 471 L303 507 L395 507 L395 587 Q395 633 407.5 662.5 Q420 692 439.5 708 Q459 724 484 730 Q509 736 533 736 Q553 736 573 733 Q593 730 606 725 L600 690 Q584 695 569 697 Q554 699 534 699 Q482 699 460.5 670.5 Q439 642 439 585 L439 507 L590 507 L590 471 L439 471 L439 -26 L395 -26 L395 471 Z " />
<glyph glyph-name="uniFF47" unicode="&#xff47;" horiz-adv-x="910" d="M623 350 Q623 376 611 399.5 Q599 423 576.5 440.5 Q554 458 523 468.5 Q492 479 455 479 Q380 479 334 429 Q288 379 288 285 L288 209 Q288 114 329 64.5 Q370 15 454 15 Q483 15 513 26 Q543 37 567.5 58 Q592 79 607.5 109.5 Q623 140 623 179 L623 350 Z M622 74 Q602 33 556.5 4.5 Q511 -24 449 -24 Q352 -24 298.5 34 Q245 92 245 203 L245 291 Q245 346 260.5 388.5 Q276 431 304.5 460 Q333 489 371.5 503.5 Q410 518 457 518 Q505 518 552 498.5 Q599 479 623 442 L623 507 L665 507 L665 -30 Q665 -89 649 -130.5 Q633 -172 606 -198 Q579 -224 543 -235.5 Q507 -247 467 -247 Q410 -247 369.5 -233 Q329 -219 291 -193 L313 -158 Q352 -185 387 -196.5 Q422 -208 462 -208 Q494 -208 523 -199 Q552 -190 574 -169 Q596 -148 609 -114 Q622 -80 622 -30 L622 74 Z " />
<glyph glyph-name="uniFF48" unicode="&#xff48;" horiz-adv-x="910" d="M656 -26 L613 -26 L613 328 Q613 398 579.5 438.5 Q546 479 464 479 Q421 479 389.5 463.5 Q358 448 337 425.5 Q316 403 306 378.5 Q296 354 296 336 L296 -26 L253 -26 L253 730 L296 730 L296 425 Q303 439 317 455 Q331 471 353 485 Q375 499 404 508.5 Q433 518 471 518 Q521 518 556.5 503.5 Q592 489 614 464 Q636 439 646 407 Q656 375 656 341 L656 -26 Z " />
<glyph glyph-name="uniFF49" unicode="&#xff49;" horiz-adv-x="910" d="M476 507 L476 -26 L433 -26 L433 507 L476 507 Z M480 682 L480 623 L429 623 L429 682 L480 682 Z " />
<glyph glyph-name="uniFF4A" unicode="&#xff4a;" horiz-adv-x="910" d="M554 -102 Q554 -149 544.5 -177 Q535 -205 518.5 -221 Q502 -237 478.5 -242 Q455 -247 428 -247 Q411 -247 389.5 -243.5 Q368 -240 351 -234 L359 -198 Q398 -210 431 -210 Q455 -210 470.5 -204 Q486 -198 495 -184.5 Q504 -171 507.5 -150 Q511 -129 511 -98 L511 507 L554 507 L554 -102 Z M558 682 L558 623 L507 623 L507 682 L558 682 Z " />
<glyph glyph-name="uniFF4B" unicode="&#xff4b;" horiz-adv-x="910" d="M427 307 L660 -26 L609 -26 L397 277 L293 177 L293 -26 L250 -26 L250 730 L293 730 L293 232 L575 507 L634 507 L427 307 Z " />
<glyph glyph-name="uniFF4C" unicode="&#xff4c;" horiz-adv-x="910" d="M476 730 L476 -26 L433 -26 L433 730 L476 730 Z " />
<glyph glyph-name="uniFF4D" unicode="&#xff4d;" horiz-adv-x="910" d="M801 -26 L758 -26 L758 328 Q758 362 751.5 390 Q745 418 730 438 Q715 458 690 468.5 Q665 479 627 479 Q587 479 558.5 464 Q530 449 511.5 427.5 Q493 406 484.5 382 Q476 358 476 340 L476 -26 L433 -26 L433 328 Q433 362 426.5 390 Q420 418 405 438 Q390 458 364.5 468.5 Q339 479 301 479 Q261 479 232.5 463.5 Q204 448 186 425.5 Q168 403 159.5 378.5 Q151 354 151 336 L151 -26 L108 -26 L108 507 L150 507 L150 425 Q157 439 169.5 455 Q182 471 201 485 Q220 499 246.5 508.5 Q273 518 308 518 Q375 518 412.5 488.5 Q450 459 464 415 Q484 457 527 487.5 Q570 518 634 518 Q681 518 713 503 Q745 488 764.5 463.5 Q784 439 792.5 407 Q801 375 801 341 L801 -26 Z " />
<glyph glyph-name="uniFF4E" unicode="&#xff4e;" horiz-adv-x="910" d="M656 -26 L613 -26 L613 328 Q613 398 579.5 438.5 Q546 479 464 479 Q421 479 389.5 463.5 Q358 448 337 425.5 Q316 403 306 378.5 Q296 354 296 336 L296 -26 L253 -26 L253 507 L295 507 L295 425 Q302 439 316.5 455 Q331 471 352.5 485 Q374 499 403.5 508.5 Q433 518 471 518 Q521 518 556.5 503.5 Q592 489 614 464 Q636 439 646 407 Q656 375 656 341 L656 -26 Z " />
<glyph glyph-name="uniFF4F" unicode="&#xff4f;" horiz-adv-x="910" d="M455 518 Q559 518 616.5 455 Q674 392 674 277 L674 207 Q674 92 616.5 29 Q559 -34 455 -34 Q351 -34 293.5 29 Q236 92 236 207 L236 277 Q236 392 293.5 455 Q351 518 455 518 Z M455 3 Q536 3 583.5 53 Q631 103 631 207 L631 277 Q631 381 583.5 431 Q536 481 455 481 Q374 481 326.5 431 Q279 381 279 277 L279 207 Q279 103 326.5 53 Q374 3 455 3 Z " />
<glyph glyph-name="uniFF50" unicode="&#xff50;" horiz-adv-x="910" d="M287 420 Q307 461 352.5 489.5 Q398 518 460 518 Q556 518 610.5 460 Q665 402 665 291 L665 193 Q665 137 649.5 95 Q634 53 606 24 Q578 -5 539 -19.5 Q500 -34 453 -34 Q405 -34 358.5 -14.5 Q312 5 288 42 L288 -240 L245 -240 L245 507 L287 507 L287 420 Z M286 134 Q286 108 298.5 84.5 Q311 61 333 43.5 Q355 26 386 15.5 Q417 5 455 5 Q530 5 576 55 Q622 105 622 199 L622 285 Q622 380 581 429.5 Q540 479 456 479 Q427 479 396.5 468 Q366 457 341.5 436 Q317 415 301.5 384.5 Q286 354 286 315 L286 134 Z " />
<glyph glyph-name="uniFF51" unicode="&#xff51;" horiz-adv-x="910" d="M622 64 Q602 23 556.5 -5.5 Q511 -34 449 -34 Q352 -34 298.5 24 Q245 82 245 193 L245 291 Q245 346 260.5 388.5 Q276 431 304.5 460 Q333 489 371.5 503.5 Q410 518 457 518 Q505 518 552 498.5 Q599 479 623 442 L623 507 L665 507 L665 -240 L622 -240 L622 64 Z M624 350 Q624 376 611.5 399.5 Q599 423 577 440.5 Q555 458 523.5 468.5 Q492 479 455 479 Q380 479 334 429 Q288 379 288 285 L288 199 Q288 104 329 54.5 Q370 5 454 5 Q483 5 513.5 16 Q544 27 568.5 48 Q593 69 608.5 99.5 Q624 130 624 169 L624 350 Z " />
<glyph glyph-name="uniFF52" unicode="&#xff52;" horiz-adv-x="910" d="M578 466 Q565 471 549.5 473.5 Q534 476 514 476 Q476 476 447 460.5 Q418 445 399 418 Q380 391 370.5 354 Q361 317 361 274 L361 -26 L318 -26 L318 507 L360 507 L360 404 Q367 425 380.5 445.5 Q394 466 413.5 482 Q433 498 459 508 Q485 518 517 518 Q540 518 557.5 515 Q575 512 591 506 L578 466 Z " />
<glyph glyph-name="uniFF53" unicode="&#xff53;" horiz-adv-x="910" d="M454 4 Q492 4 521.5 12.5 Q551 21 571 35 Q591 49 601.5 68 Q612 87 612 107 L612 120 Q612 147 603.5 164.5 Q595 182 575.5 194 Q556 206 524 215 Q492 224 444 233 Q406 240 375 250.5 Q344 261 321 276.5 Q298 292 285.5 314.5 Q273 337 273 369 L273 385 Q273 412 284.5 436.5 Q296 461 319.5 479 Q343 497 377.5 507.5 Q412 518 458 518 Q521 518 566 503 Q611 488 636 469 L618 438 Q577 463 540.5 471.5 Q504 480 454 480 Q386 480 350 454.5 Q314 429 314 384 L314 371 Q314 347 325.5 330 Q337 313 357 302 Q377 291 404.5 283.5 Q432 276 464 270 Q513 261 548.5 250 Q584 239 606.5 222.5 Q629 206 639.5 182.5 Q650 159 650 123 L650 105 Q650 71 634 45 Q618 19 591.5 1.5 Q565 -16 530 -25 Q495 -34 458 -34 Q396 -34 345 -16 Q294 2 260 28 L281 62 Q318 36 363.5 20 Q409 4 454 4 Z " />
<glyph glyph-name="uniFF54" unicode="&#xff54;" horiz-adv-x="910" d="M396 471 L303 471 L303 507 L396 507 L396 645 L439 645 L439 507 L590 507 L590 471 L439 471 L439 127 Q439 67 454.5 37 Q470 7 521 7 Q544 7 562.5 10 Q581 13 600 18 L607 -17 Q592 -22 567.5 -26 Q543 -30 525 -30 Q497 -30 473.5 -24.5 Q450 -19 432.5 -3.5 Q415 12 405.5 40.5 Q396 69 396 116 L396 471 Z " />
<glyph glyph-name="uniFF55" unicode="&#xff55;" horiz-adv-x="910" d="M256 507 L299 507 L299 155 Q299 132 303.5 105.5 Q308 79 322 56.5 Q336 34 363.5 19 Q391 4 438 4 Q483 4 515.5 19.5 Q548 35 569 57 Q590 79 600.5 102 Q611 125 611 140 L611 507 L654 507 L654 -26 L612 -26 L612 58 Q607 47 592.5 31.5 Q578 16 555.5 1.5 Q533 -13 503.5 -23.5 Q474 -34 440 -34 Q387 -34 352 -19.5 Q317 -5 295.5 20 Q274 45 265 76.5 Q256 108 256 143 L256 507 Z " />
<glyph glyph-name="uniFF56" unicode="&#xff56;" horiz-adv-x="910" d="M631 507 L676 507 L477 -26 L435 -26 L233 507 L279 507 L457 26 L631 507 Z " />
<glyph glyph-name="uniFF57" unicode="&#xff57;" horiz-adv-x="910" d="M761 507 L801 507 L650 -26 L610 -26 L454 455 L302 -26 L262 -26 L108 507 L151 507 L284 26 L436 507 L474 507 L631 26 L761 507 Z " />
<glyph glyph-name="uniFF58" unicode="&#xff58;" horiz-adv-x="910" d="M484 249 L678 -26 L624 -26 L456 220 L284 -26 L231 -26 L427 245 L246 507 L297 507 L456 274 L614 507 L665 507 L484 249 Z " />
<glyph glyph-name="uniFF59" unicode="&#xff59;" horiz-adv-x="910" d="M631 507 L677 507 L399 -246 L359 -232 L434 -33 L233 507 L278 507 L458 21 L631 507 Z " />
<glyph glyph-name="uniFF5A" unicode="&#xff5a;" horiz-adv-x="910" d="M646 477 L304 10 L659 10 L659 -26 L251 -26 L251 4 L593 471 L271 471 L271 507 L646 507 L646 477 Z " />
<glyph glyph-name="uniFF5B" unicode="&#xff5b;" horiz-adv-x="910" d="M657 200 Q657 247 627.5 267 Q598 287 543 288 L543 333 Q598 334 627.5 354 Q657 374 657 419 L657 641 Q657 711 692.5 738.5 Q728 766 789 766 L868 766 L868 728 L790 728 Q747 728 722.5 711.5 Q698 695 698 644 L698 427 Q698 387 680 354.5 Q662 322 610 310 Q661 299 679.5 267 Q698 235 698 193 L698 -48 Q698 -99 722.5 -115.5 Q747 -132 790 -132 L868 -132 L868 -170 L789 -170 Q759 -170 734.5 -163.5 Q710 -157 692.5 -142.5 Q675 -128 666 -104 Q657 -80 657 -45 L657 200 Z " />
<glyph glyph-name="uniFF5C" unicode="&#xff5c;" horiz-adv-x="910" d="M474 -170 L436 -170 L436 765 L474 765 L474 -170 Z " />
<glyph glyph-name="uniFF5D" unicode="&#xff5d;" horiz-adv-x="910" d="M253 -45 Q253 -80 244 -104 Q235 -128 217.5 -142.5 Q200 -157 175.5 -163.5 Q151 -170 121 -170 L42 -170 L42 -132 L120 -132 Q163 -132 187.5 -115.5 Q212 -99 212 -48 L212 193 Q212 235 230.5 267 Q249 299 300 310 Q274 316 257 327.5 Q240 339 230 354.5 Q220 370 216 388.5 Q212 407 212 427 L212 644 Q212 695 187.5 711.5 Q163 728 120 728 L42 728 L42 766 L121 766 Q182 766 217.5 738.5 Q253 711 253 641 L253 419 Q253 374 282.5 354 Q312 334 367 333 L367 288 Q312 287 282.5 267 Q253 247 253 200 L253 -45 Z " />
<glyph glyph-name="&amp;#x203e;" unicode="&#x203e;" horiz-adv-x="910" d="M905 723 L5 723 L5 762 L905 762 L905 723 Z " />
<glyph glyph-name="&amp;#xffe3;" unicode="&#xffe3;" horiz-adv-x="910" d="M905 723 L5 723 L5 762 L905 762 L905 723 Z " />
<glyph glyph-name="uni3131" unicode="&#x3131;" horiz-adv-x="910" d="M151 535 L719 535 L719 62 L676 62 L676 495 L151 495 L151 535 Z " />
<glyph glyph-name="uni3132" unicode="&#x3132;" horiz-adv-x="910" d="M467 535 L766 535 L766 62 L723 62 L723 495 L467 495 L467 535 Z M114 535 L403 535 L403 62 L360 62 L360 495 L114 495 L114 535 Z " />
<glyph glyph-name="uni3133" unicode="&#x3133;" horiz-adv-x="910" d="M678 379 Q678 353 681 333 Q684 313 691 295.5 Q698 278 707.5 262 Q717 246 731 229 Q742 214 754 199.5 Q766 185 780 168.5 Q794 152 812 131.5 Q830 111 853 86 L823 56 Q776 108 745.5 144 Q715 180 696 204 Q673 233 665.5 250 Q658 267 657 273 L656 273 Q655 267 647.5 250 Q640 233 617 204 Q598 180 567.5 144 Q537 108 490 56 L459 86 Q482 111 500 131.5 Q518 152 532.5 168.5 Q547 185 559 199.5 Q571 214 582 229 Q595 246 605 262 Q615 278 621.5 295.5 Q628 313 631 333 Q634 353 634 379 L634 539 L678 539 L678 379 Z M140 531 L403 531 L403 62 L359 62 L359 491 L140 491 L140 531 Z " />
<glyph glyph-name="uni3134" unicode="&#x3134;" horiz-adv-x="910" d="M234 106 L768 106 L768 66 L191 66 L191 548 L234 548 L234 106 Z " />
<glyph glyph-name="uni3135" unicode="&#x3135;" horiz-adv-x="910" d="M207 95 L261 95 Q294 95 333 97.5 Q372 100 409 105 L414 66 Q373 60 332.5 57.5 Q292 55 250 55 L164 55 L164 540 L207 540 L207 95 Z M634 380 Q634 354 636.5 334 Q639 314 645 296 Q651 278 660.5 260.5 Q670 243 684 224 Q695 209 706 194 Q717 179 730 161.5 Q743 144 759 124 Q775 104 796 78 L766 52 Q744 79 727.5 99 Q711 119 698.5 135.5 Q686 152 675.5 166 Q665 180 655 193 Q635 221 625.5 239 Q616 257 614 266 L613 266 Q611 257 601.5 239 Q592 221 572 193 Q562 180 551.5 166 Q541 152 528.5 135.5 Q516 119 499.5 99 Q483 79 461 52 L429 77 Q450 103 466.5 123.5 Q483 144 496 161 Q509 178 520 193 Q531 208 542 223 Q556 242 565 258 Q574 274 579.5 290 Q585 306 587.5 325 Q590 344 590 370 L590 498 L446 498 L446 538 L776 538 L776 498 L634 498 L634 380 Z " />
<glyph glyph-name="uni3136" unicode="&#x3136;" horiz-adv-x="910" d="M778 421 L404 421 L404 461 L567 461 L567 562 L615 562 L615 461 L778 461 L778 421 Z M198 99 L268 99 Q301 99 340 101.5 Q379 104 416 109 L419 70 Q378 64 338.5 61.5 Q299 59 257 59 L155 59 L155 540 L198 540 L198 99 Z M740 187 Q740 163 731.5 137 Q723 111 705 90 Q687 69 658.5 55 Q630 41 591 41 Q551 41 522.5 55 Q494 69 476 90 Q458 111 450 137 Q442 163 442 187 L442 221 Q442 246 450 272.5 Q458 299 476 320.5 Q494 342 522.5 356 Q551 370 591 370 Q630 370 658.5 356 Q687 342 705 320.5 Q723 299 731.5 272.5 Q740 246 740 221 L740 187 Z M697 217 Q697 266 669 298.5 Q641 331 591 331 Q541 331 513 298.5 Q485 266 485 217 L485 191 Q485 144 513 112 Q541 80 591 80 Q641 80 669 112 Q697 144 697 191 L697 217 Z " />
<glyph glyph-name="uni3137" unicode="&#x3137;" horiz-adv-x="910" d="M177 64 L177 533 L740 533 L740 493 L220 493 L220 104 L745 104 L745 64 L177 64 Z " />
<glyph glyph-name="uni3138" unicode="&#x3138;" horiz-adv-x="910" d="M169 64 L169 533 L418 533 L418 493 L212 493 L212 104 L422 104 L422 64 L169 64 Z M496 64 L496 533 L769 533 L769 493 L539 493 L539 104 L772 104 L772 64 L496 64 Z " />
<glyph glyph-name="uni3139" unicode="&#x3139;" horiz-adv-x="910" d="M177 51 L177 321 L709 321 L709 508 L177 508 L177 547 L751 547 L751 283 L219 283 L219 90 L767 90 L767 51 L177 51 Z " />
<glyph glyph-name="uni313A" unicode="&#x313a;" horiz-adv-x="910" d="M148 63 L148 321 L384 321 L384 496 L146 496 L146 535 L426 535 L426 283 L190 283 L190 102 L441 102 L441 63 L148 63 Z M495 535 L779 535 L779 62 L736 62 L736 495 L495 495 L495 535 Z " />
<glyph glyph-name="uni313B" unicode="&#x313b;" horiz-adv-x="910" d="M142 64 L142 319 L365 319 L365 496 L138 496 L138 535 L407 535 L407 281 L184 281 L184 103 L418 103 L418 64 L142 64 Z M779 535 L779 64 L485 64 L485 535 L779 535 Z M528 104 L736 104 L736 495 L528 495 L528 104 Z " />
<glyph glyph-name="uni313C" unicode="&#x313c;" horiz-adv-x="910" d="M142 64 L142 319 L365 319 L365 496 L141 496 L141 535 L407 535 L407 281 L184 281 L184 103 L420 103 L420 64 L142 64 Z M732 537 L774 537 L774 64 L489 64 L489 537 L531 537 L531 354 L732 354 L732 537 Z M732 102 L732 316 L531 316 L531 102 L732 102 Z " />
<glyph glyph-name="uni313D" unicode="&#x313d;" horiz-adv-x="910" d="M146 64 L146 319 L369 319 L369 496 L144 496 L144 535 L411 535 L411 281 L188 281 L188 103 L416 103 L416 64 L146 64 Z M661 379 Q661 353 664 333 Q667 313 674 295.5 Q681 278 690.5 262 Q700 246 714 229 Q725 214 737 199.5 Q749 185 763 168.5 Q777 152 795 131.5 Q813 111 836 86 L806 56 Q759 108 728.5 144 Q698 180 679 204 Q656 233 648.5 250 Q641 267 640 273 L639 273 Q638 267 630.5 250 Q623 233 600 204 Q581 180 550.5 144 Q520 108 473 56 L442 86 Q465 111 483 131.5 Q501 152 515.5 168.5 Q530 185 542 199.5 Q554 214 565 229 Q578 246 588 262 Q598 278 604.5 295.5 Q611 313 614 333 Q617 353 617 379 L617 539 L661 539 L661 379 Z " />
<glyph glyph-name="uni313E" unicode="&#x313e;" horiz-adv-x="910" d="M134 64 L134 319 L363 319 L363 496 L130 496 L130 535 L405 535 L405 281 L176 281 L176 103 L417 103 L417 64 L134 64 Z M484 537 L773 537 L773 498 L525 498 L525 319 L764 319 L764 280 L525 280 L525 103 L778 103 L778 64 L484 64 L484 537 Z " />
<glyph glyph-name="uni313F" unicode="&#x313f;" horiz-adv-x="910" d="M139 64 L139 319 L357 319 L357 496 L135 496 L135 535 L399 535 L399 281 L181 281 L181 103 L408 103 L408 64 L139 64 Z M524 100 L524 498 L457 498 L457 534 L770 534 L770 498 L702 498 L702 100 L774 100 L774 64 L453 64 L453 100 L524 100 Z M562 100 L664 100 L664 498 L562 498 L562 100 Z " />
<glyph glyph-name="uni3140" unicode="&#x3140;" horiz-adv-x="910" d="M136 63 L136 319 L343 319 L343 496 L132 496 L132 535 L385 535 L385 281 L178 281 L178 102 L409 102 L409 63 L136 63 Z M788 421 L428 421 L428 461 L580 461 L580 562 L628 562 L628 461 L788 461 L788 421 Z M753 187 Q753 163 744.5 137 Q736 111 718 90 Q700 69 671.5 55 Q643 41 604 41 Q564 41 535.5 55 Q507 69 489 90 Q471 111 463 137 Q455 163 455 187 L455 221 Q455 246 463 272.5 Q471 299 489 320.5 Q507 342 535.5 356 Q564 370 604 370 Q643 370 671.5 356 Q700 342 718 320.5 Q736 299 744.5 272.5 Q753 246 753 221 L753 187 Z M710 217 Q710 266 682 298.5 Q654 331 604 331 Q554 331 526 298.5 Q498 266 498 217 L498 191 Q498 144 526 112 Q554 80 604 80 Q654 80 682 112 Q710 144 710 191 L710 217 Z " />
<glyph glyph-name="uni3141" unicode="&#x3141;" horiz-adv-x="910" d="M738 537 L738 62 L172 62 L172 537 L738 537 Z M215 102 L695 102 L695 497 L215 497 L215 102 Z " />
<glyph glyph-name="uni3142" unicode="&#x3142;" horiz-adv-x="910" d="M737 549 L737 61 L173 61 L173 549 L216 549 L216 354 L694 354 L694 549 L737 549 Z M694 100 L694 315 L216 315 L216 100 L694 100 Z " />
<glyph glyph-name="uni3143" unicode="&#x3143;" horiz-adv-x="910" d="M415 548 L415 63 L145 63 L145 548 L188 548 L188 351 L372 351 L372 548 L415 548 Z M372 102 L372 312 L188 312 L188 102 L372 102 Z M764 548 L764 63 L495 63 L495 548 L538 548 L538 351 L721 351 L721 548 L764 548 Z M721 102 L721 312 L538 312 L538 102 L721 102 Z " />
<glyph glyph-name="uni3144" unicode="&#x3144;" horiz-adv-x="910" d="M417 548 L417 63 L138 63 L138 548 L181 548 L181 351 L374 351 L374 548 L417 548 Z M374 102 L374 312 L181 312 L181 102 L374 102 Z M661 379 Q661 353 664 333 Q667 313 674 295.5 Q681 278 690.5 262 Q700 246 714 229 Q725 214 737 199.5 Q749 185 763 168.5 Q777 152 795 131.5 Q813 111 836 86 L806 56 Q759 108 728.5 144 Q698 180 679 204 Q656 233 648.5 250 Q641 267 640 273 L639 273 Q638 267 630.5 250 Q623 233 600 204 Q581 180 550.5 144 Q520 108 473 56 L442 86 Q465 111 483 131.5 Q501 152 515.5 168.5 Q530 185 542 199.5 Q554 214 565 229 Q578 246 588 262 Q598 278 604.5 295.5 Q611 313 614 333 Q617 353 617 379 L617 547 L661 547 L661 379 Z " />
<glyph glyph-name="uni3145" unicode="&#x3145;" horiz-adv-x="910" d="M476 440 Q476 405 478.5 378.5 Q481 352 491 328.5 Q501 305 522 281.5 Q543 258 579 231 Q613 205 661 172.5 Q709 140 774 98 L748 61 Q682 105 631 140.5 Q580 176 553 196 Q529 214 512.5 228 Q496 242 485 254 Q474 266 467.5 276.5 Q461 287 455 297 L453 297 Q447 287 440.5 276.5 Q434 266 423 254 Q412 242 395.5 228 Q379 214 355 196 Q328 176 277 140.5 Q226 105 160 61 L134 98 Q199 140 247 172.5 Q295 205 329 231 Q365 258 386 281.5 Q407 305 417 328.5 Q427 352 429.5 378.5 Q432 405 432 440 L432 554 L476 554 L476 440 Z " />
<glyph glyph-name="uni3146" unicode="&#x3146;" horiz-adv-x="910" d="M455 137 Q480 163 502.5 187.5 Q525 212 540 230 Q560 254 572.5 273 Q585 292 591.5 313 Q598 334 600.5 359 Q603 384 603 419 L603 557 L648 557 L648 401 Q648 370 650.5 347 Q653 324 660 304.5 Q667 285 679 267.5 Q691 250 709 230 Q742 194 773 163.5 Q804 133 844 96 L815 66 Q775 104 745.5 133 Q716 162 693 187 Q661 222 644.5 247.5 Q628 273 626 287 L625 287 Q622 261 559 188 Q540 166 514.5 138.5 Q489 111 455 77 Q421 111 395.5 138.5 Q370 166 351 188 Q288 261 285 287 L284 287 Q282 273 265.5 247.5 Q249 222 217 187 Q194 162 165 133 Q136 104 95 66 L66 96 Q106 133 137 163.5 Q168 194 201 230 Q219 250 231 267.5 Q243 285 250 304.5 Q257 324 259.5 347 Q262 370 262 401 L262 557 L307 557 L307 419 Q307 384 309.5 359 Q312 334 318.5 313 Q325 292 337.5 273 Q350 254 370 230 Q385 212 407.5 187.5 Q430 163 455 137 Z " />
<glyph glyph-name="uni3147" unicode="&#x3147;" horiz-adv-x="910" d="M173 330 Q173 378 194.5 418.5 Q216 459 254 488.5 Q292 518 343.5 535 Q395 552 455 552 Q515 552 566.5 535 Q618 518 656 488.5 Q694 459 715.5 418.5 Q737 378 737 330 L737 279 Q737 231 715.5 190.5 Q694 150 656 120.5 Q618 91 566.5 74 Q515 57 455 57 Q395 57 343.5 74 Q292 91 254 120.5 Q216 150 194.5 190.5 Q173 231 173 279 L173 330 Z M455 508 Q401 508 357.5 493.5 Q314 479 284 454.5 Q254 430 237.5 396.5 Q221 363 221 325 L221 284 Q221 246 237.5 212.5 Q254 179 284 154 Q314 129 357.5 114.5 Q401 100 455 100 Q509 100 552.5 114.5 Q596 129 626.5 154 Q657 179 674 212.5 Q691 246 691 284 L691 325 Q691 363 674 396.5 Q657 430 626.5 454.5 Q596 479 552.5 493.5 Q509 508 455 508 Z " />
<glyph glyph-name="uni3148" unicode="&#x3148;" horiz-adv-x="910" d="M746 507 L477 507 L477 440 Q477 405 479.5 378.5 Q482 352 492 328.5 Q502 305 522.5 281.5 Q543 258 579 231 Q613 205 661 172.5 Q709 140 774 98 L748 61 Q682 105 631 140.5 Q580 176 553 196 Q529 214 512.5 228 Q496 242 485 254 Q474 266 467.5 276.5 Q461 287 455 297 L453 297 Q447 287 440.5 276.5 Q434 266 423 254 Q412 242 395.5 228 Q379 214 355 196 Q328 176 277 140.5 Q226 105 160 61 L134 98 Q199 140 247 172.5 Q295 205 329 231 Q365 258 385.5 281.5 Q406 305 416 328.5 Q426 352 428.5 378.5 Q431 405 431 440 L431 507 L164 507 L164 546 L746 546 L746 507 Z " />
<glyph glyph-name="uni3149" unicode="&#x3149;" horiz-adv-x="910" d="M781 508 L639 508 L639 400 Q639 369 641.5 346 Q644 323 650.5 303.5 Q657 284 668.5 266.5 Q680 249 699 229 Q716 211 730 196.5 Q744 182 758 168 Q772 154 788 139.5 Q804 125 824 106 L795 76 Q775 95 759.5 110 Q744 125 731 137.5 Q718 150 706.5 162 Q695 174 683 186 Q650 220 634 246 Q618 272 616 286 L615 286 Q612 260 549 187 Q530 165 509.5 143 Q489 121 455 87 Q421 121 400.5 143 Q380 165 361 187 Q298 260 295 286 L294 286 Q292 272 276 246 Q260 220 227 186 Q215 174 203.5 162 Q192 150 179 137.5 Q166 125 150.5 110 Q135 95 115 76 L86 106 Q106 125 122 139.5 Q138 154 152 168 Q166 182 180 196.5 Q194 211 211 229 Q230 249 241.5 266.5 Q253 284 259.5 303.5 Q266 323 268.5 346 Q271 369 271 400 L271 508 L129 508 L129 546 L781 546 L781 508 Z M530 229 Q550 253 562.5 272 Q575 291 581.5 312 Q588 333 590.5 358 Q593 383 593 418 L593 508 L317 508 L317 418 Q317 383 319.5 358 Q322 333 328.5 312 Q335 291 347.5 272 Q360 253 380 229 Q395 211 412.5 192 Q430 173 455 147 Q480 173 497.5 192 Q515 211 530 229 Z " />
<glyph glyph-name="uni314A" unicode="&#x314a;" horiz-adv-x="910" d="M477 486 L758 486 L758 447 L477 447 L477 440 Q477 405 479.5 378.5 Q482 352 492 328.5 Q502 305 522.5 281.5 Q543 258 579 231 Q613 205 661 172.5 Q709 140 774 98 L748 61 Q682 105 631 140.5 Q580 176 553 196 Q529 214 512.5 228 Q496 242 485 254 Q474 266 467.5 276.5 Q461 287 455 297 L453 297 Q447 287 440.5 276.5 Q434 266 423 254 Q412 242 395.5 228 Q379 214 355 196 Q328 176 277 140.5 Q226 105 160 61 L134 98 Q199 140 247 172.5 Q295 205 329 231 Q365 258 385.5 281.5 Q406 305 416 328.5 Q426 352 428 378.5 Q430 405 430 440 L430 447 L152 447 L152 486 L430 486 L430 628 L477 628 L477 486 Z " />
<glyph glyph-name="uni314B" unicode="&#x314b;" horiz-adv-x="910" d="M686 320 L686 505 L160 505 L160 545 L729 545 L729 53 L686 53 L686 281 L149 269 L148 312 L686 320 Z " />
<glyph glyph-name="uni314C" unicode="&#x314c;" horiz-adv-x="910" d="M220 280 L220 102 L759 102 L759 62 L177 62 L177 541 L751 541 L751 501 L220 501 L220 320 L738 320 L738 280 L220 280 Z " />
<glyph glyph-name="uni314D" unicode="&#x314d;" horiz-adv-x="910" d="M135 101 L287 101 L287 495 L144 495 L144 534 L766 534 L766 495 L624 495 L624 101 L775 101 L775 62 L135 62 L135 101 Z M330 101 L581 101 L581 495 L330 495 L330 101 Z " />
<glyph glyph-name="uni314E" unicode="&#x314e;" horiz-adv-x="910" d="M455 22 Q400 22 354.5 33 Q309 44 276 64.5 Q243 85 225 114.5 Q207 144 207 180 L207 220 Q207 256 225 285 Q243 314 276 335 Q309 356 354.5 367 Q400 378 455 378 Q510 378 555.5 367 Q601 356 634 335 Q667 314 685 285 Q703 256 703 220 L703 180 Q703 144 685 114.5 Q667 85 634 64.5 Q601 44 555.5 33 Q510 22 455 22 Z M759 447 L151 447 L151 485 L432 485 L432 620 L477 620 L477 485 L759 485 L759 447 Z M455 339 Q358 339 305.5 304.5 Q253 270 253 215 L253 185 Q253 130 305.5 95.5 Q358 61 455 61 Q552 61 604.5 95.5 Q657 130 657 185 L657 215 Q657 270 604.5 304.5 Q552 339 455 339 Z " />
<glyph glyph-name="uni314F" unicode="&#x314f;" horiz-adv-x="910" d="M656 348 L445 348 L445 -132 L402 -132 L402 774 L445 774 L445 388 L656 388 L656 348 Z " />
<glyph glyph-name="uni3150" unicode="&#x3150;" horiz-adv-x="910" d="M591 -132 L548 -132 L548 348 L362 348 L362 -87 L319 -87 L319 755 L362 755 L362 388 L548 388 L548 774 L591 774 L591 -132 Z " />
<glyph glyph-name="uni3151" unicode="&#x3151;" horiz-adv-x="910" d="M649 458 L456 458 L456 268 L649 268 L649 228 L456 228 L456 -131 L414 -131 L414 775 L456 775 L456 498 L649 498 L649 458 Z " />
<glyph glyph-name="uni3152" unicode="&#x3152;" horiz-adv-x="910" d="M591 -132 L549 -132 L549 229 L361 229 L361 -87 L319 -87 L319 755 L361 755 L361 498 L549 498 L549 774 L591 774 L591 -132 Z M361 269 L549 269 L549 458 L361 458 L361 269 Z " />
<glyph glyph-name="uni3153" unicode="&#x3153;" horiz-adv-x="910" d="M343 388 L550 388 L550 774 L593 774 L593 -132 L550 -132 L550 348 L343 348 L343 388 Z " />
<glyph glyph-name="uni3154" unicode="&#x3154;" horiz-adv-x="910" d="M617 774 L660 774 L660 -132 L617 -132 L617 774 Z M270 387 L452 387 L452 755 L495 755 L495 -87 L452 -87 L454 347 L270 347 L270 387 Z " />
<glyph glyph-name="uni3155" unicode="&#x3155;" horiz-adv-x="910" d="M354 498 L551 498 L551 774 L593 774 L593 -132 L551 -132 L551 228 L354 228 L354 268 L551 268 L551 458 L354 458 L354 498 Z " />
<glyph glyph-name="uni3156" unicode="&#x3156;" horiz-adv-x="910" d="M617 774 L660 774 L660 -132 L617 -132 L617 774 Z M270 274 L451 274 L451 464 L270 464 L270 503 L451 503 L451 755 L494 755 L494 -87 L451 -87 L451 235 L270 235 L270 274 Z " />
<glyph glyph-name="uni3157" unicode="&#x3157;" horiz-adv-x="910" d="M872 124 L872 86 L38 86 L38 124 L433 124 L433 482 L476 482 L476 124 L872 124 Z " />
<glyph glyph-name="uni3158" unicode="&#x3158;" horiz-adv-x="910" d="M903 367 L746 367 L746 -132 L703 -132 L703 774 L746 774 L746 407 L903 407 L903 367 Z M41 107 Q117 107 178 107.5 Q239 108 290 109 L290 397 L333 397 L333 110 Q374 111 410 113 Q446 115 480 117 Q514 119 548 122 Q582 125 618 129 L622 90 Q562 84 509 80 Q456 76 392.5 73.5 Q329 71 245.5 69.5 Q162 68 41 68 L41 107 Z " />
<glyph glyph-name="uni3159" unicode="&#x3159;" horiz-adv-x="910" d="M823 -132 L780 -132 L780 364 L639 364 L639 -107 L596 -107 L596 758 L639 758 L639 402 L780 402 L780 774 L823 774 L823 -132 Z M533 102 Q490 99 444.5 97 Q399 95 342 93.5 Q285 92 213 91.5 Q141 91 47 91 L47 129 Q109 129 160.5 129 Q212 129 257 130 L257 398 L299 398 L299 131 Q368 132 423 134 Q478 136 531 140 L533 102 Z " />
<glyph glyph-name="uni315A" unicode="&#x315a;" horiz-adv-x="910" d="M742 -132 L742 774 L786 774 L786 -132 L742 -132 Z M53 108 Q133 108 198 108.5 Q263 109 319 110 L319 397 L362 397 L362 111 Q404 112 441.5 113.5 Q479 115 514 117.5 Q549 120 583.5 123 Q618 126 653 130 L657 91 Q597 85 540.5 80.5 Q484 76 416 73.5 Q348 71 261 70 Q174 69 53 69 L53 108 Z " />
<glyph glyph-name="uni315B" unicode="&#x315b;" horiz-adv-x="910" d="M612 482 L612 124 L872 124 L872 86 L38 86 L38 124 L297 124 L297 482 L339 482 L339 124 L570 124 L570 482 L612 482 Z " />
<glyph glyph-name="uni315C" unicode="&#x315c;" horiz-adv-x="910" d="M872 309 L872 271 L477 271 L477 -96 L434 -96 L434 271 L38 271 L38 309 L872 309 Z " />
<glyph glyph-name="uni315D" unicode="&#x315d;" horiz-adv-x="910" d="M737 -132 L737 104 L497 104 L497 145 L737 145 L737 774 L780 774 L780 -132 L737 -132 Z M44 312 Q124 312 189 312.5 Q254 313 308 314 Q362 315 407 316.5 Q452 318 493 320.5 Q534 323 572.5 326 Q611 329 652 334 L656 295 Q618 291 583.5 287.5 Q549 284 513 282 Q477 280 437 278 Q397 276 349 275 L349 -103 L305 -103 L305 274 Q252 273 188.5 273 Q125 273 44 273 L44 312 Z " />
<glyph glyph-name="uni315E" unicode="&#x315e;" horiz-adv-x="910" d="M591 758 L634 758 L634 -108 L591 -108 L591 120 L408 120 L408 161 L591 161 L591 758 Z M807 -132 L764 -132 L764 774 L807 774 L807 -132 Z M516 274 Q467 270 413.5 268 Q360 266 290 264 L290 -73 L248 -73 L248 264 Q201 263 147 263 Q93 263 27 263 L27 302 Q117 302 187.5 302.5 Q258 303 315.5 304.5 Q373 306 421 308 Q469 310 514 313 L516 274 Z " />
<glyph glyph-name="uni315F" unicode="&#x315f;" horiz-adv-x="910" d="M46 279 Q166 279 253.5 280 Q341 281 409.5 283.5 Q478 286 535.5 290 Q593 294 655 301 L659 262 Q622 258 588 254.5 Q554 251 518.5 249 Q483 247 443.5 245 Q404 243 358 242 L358 -102 L314 -102 L314 241 Q260 240 194.5 240 Q129 240 46 240 L46 279 Z M734 -132 L734 774 L777 774 L777 -132 L734 -132 Z " />
<glyph glyph-name="uni3160" unicode="&#x3160;" horiz-adv-x="910" d="M570 -96 L570 271 L340 271 L340 -96 L298 -96 L298 271 L38 271 L38 309 L872 309 L872 271 L612 271 L612 -96 L570 -96 Z " />
<glyph glyph-name="uni3161" unicode="&#x3161;" horiz-adv-x="910" d="M872 154 L872 116 L38 116 L38 154 L872 154 Z " />
<glyph glyph-name="uni3162" unicode="&#x3162;" horiz-adv-x="910" d="M739 -132 L739 774 L783 774 L783 -132 L739 -132 Z M49 152 Q169 152 256.5 153 Q344 154 412.5 156.5 Q481 159 538.5 163 Q596 167 658 174 L662 135 Q622 131 584.5 127.5 Q547 124 508 121.5 Q469 119 424.5 117.5 Q380 116 325 115 Q270 114 202.5 113.5 Q135 113 49 113 L49 152 Z " />
<glyph glyph-name="uni3163" unicode="&#x3163;" horiz-adv-x="910" d="M433 -132 L433 774 L476 774 L476 -132 L433 -132 Z " />
<glyph glyph-name="uni3165" unicode="&#x3165;" horiz-adv-x="910" d="M206 106 L415 106 L415 66 L163 66 L163 535 L206 535 L206 106 Z M520 106 L751 106 L751 66 L477 66 L477 535 L520 535 L520 106 Z " />
<glyph glyph-name="uni3166" unicode="&#x3166;" horiz-adv-x="910" d="M207 106 L412 106 L412 66 L164 66 L164 535 L207 535 L207 106 Z M477 65 L477 534 L737 534 L737 494 L520 494 L520 105 L747 105 L747 65 L477 65 Z " />
<glyph glyph-name="uni3167" unicode="&#x3167;" horiz-adv-x="910" d="M162 105 L383 105 L383 65 L119 65 L119 536 L162 536 L162 105 Z M621 379 Q621 353 624 333 Q627 313 634 295.5 Q641 278 650.5 262 Q660 246 674 229 Q685 214 697 199.5 Q709 185 723 168.5 Q737 152 755 131.5 Q773 111 796 86 L766 56 Q719 108 688.5 144 Q658 180 639 204 Q616 233 608.5 250 Q601 267 600 273 L599 273 Q598 267 590.5 250 Q583 233 560 204 Q541 180 510.5 144 Q480 108 433 56 L402 86 Q425 111 443 131.5 Q461 152 475.5 168.5 Q490 185 502 199.5 Q514 214 525 229 Q538 246 548 262 Q558 278 564.5 295.5 Q571 313 574 333 Q577 353 577 379 L577 535 L621 535 L621 379 Z " />
<glyph glyph-name="uni3168" unicode="&#x3168;" horiz-adv-x="910" d="M774 67 L443 67 L606 569 L774 67 Z M709 106 L606 429 L506 106 L709 106 Z M184 106 L410 106 L410 66 L141 66 L141 536 L184 536 L184 106 Z " />
<glyph glyph-name="uni3169" unicode="&#x3169;" horiz-adv-x="910" d="M300 541 L528 541 L528 86 Q566 136 590.5 171 Q615 206 632 232 Q655 267 661.5 299 Q668 331 668 374 L668 539 L712 539 L712 382 Q712 339 719.5 302.5 Q727 266 750 231 Q767 205 792 169.5 Q817 134 856 83 L824 55 Q803 82 787.5 103.5 Q772 125 759.5 142 Q747 159 737.5 173 Q728 187 719 200 Q705 221 699.5 234.5 Q694 248 691 259 Q688 248 682.5 234.5 Q677 221 663 200 Q654 187 644.5 173 Q635 159 622.5 142 Q610 125 594.5 103.5 Q579 82 558 55 L528 80 L528 62 L484 62 L484 501 L300 501 L300 541 Z M53 65 L53 320 L222 320 L222 500 L52 500 L52 539 L264 539 L264 282 L95 282 L95 104 L302 104 L302 65 L53 65 Z " />
<glyph glyph-name="uni316A" unicode="&#x316a;" horiz-adv-x="910" d="M491 64 L491 536 L751 536 L751 496 L534 496 L534 104 L761 104 L761 64 L491 64 Z M152 63 L152 321 L386 321 L386 496 L149 496 L149 535 L428 535 L428 283 L194 283 L194 102 L441 102 L441 63 L152 63 Z " />
<glyph glyph-name="uni316B" unicode="&#x316b;" horiz-adv-x="910" d="M543 548 L543 63 L333 63 L333 548 L376 548 L376 351 L500 351 L500 548 L543 548 Z M75 65 L75 320 L223 320 L223 500 L75 500 L75 539 L265 539 L265 282 L117 282 L117 104 L279 104 L279 65 L75 65 Z M721 182 Q704 211 697.5 225.5 Q691 240 690 248 Q688 240 682 225.5 Q676 211 659 182 Q644 156 626 127.5 Q608 99 580 57 L547 82 Q573 121 595 156.5 Q617 192 637 228 Q646 245 652 260 Q658 275 661.5 291 Q665 307 666.5 326 Q668 345 668 369 L668 544 L712 544 L712 369 Q712 345 713.5 326 Q715 307 718.5 291 Q722 275 728 260 Q734 245 743 228 Q763 192 785 156.5 Q807 121 833 82 L800 57 Q772 99 754 127.5 Q736 156 721 182 Z M500 102 L500 312 L376 312 L376 102 L500 102 Z " />
<glyph glyph-name="uni316C" unicode="&#x316c;" horiz-adv-x="910" d="M144 64 L144 319 L361 319 L361 496 L142 496 L142 535 L403 535 L403 281 L186 281 L186 103 L431 103 L431 64 L144 64 Z M769 67 L438 67 L601 569 L769 67 Z M704 106 L601 429 L501 106 L704 106 Z " />
<glyph glyph-name="uni316D" unicode="&#x316d;" horiz-adv-x="910" d="M769 499 L465 499 L465 538 L769 538 L769 499 Z M769 197 Q769 165 758 136.5 Q747 108 727 87 Q707 66 678.5 54 Q650 42 616 42 Q581 42 553 54 Q525 66 505.5 87 Q486 108 475.5 136.5 Q465 165 465 197 L465 216 Q465 248 475.5 276.5 Q486 305 505.5 326 Q525 347 553 359 Q581 371 616 371 Q650 371 678.5 359 Q707 347 727 326 Q747 305 758 276.5 Q769 248 769 216 L769 197 Z M725 218 Q725 266 697.5 298 Q670 330 616 330 Q561 330 535 298 Q509 266 509 218 L509 195 Q509 147 535 115 Q561 83 616 83 Q670 83 697.5 115 Q725 147 725 195 L725 218 Z M146 64 L146 319 L372 319 L372 496 L142 496 L142 535 L414 535 L414 281 L188 281 L188 103 L445 103 L445 64 L146 64 Z " />
<glyph glyph-name="uni316E" unicode="&#x316e;" horiz-adv-x="910" d="M422 538 L422 64 L153 64 L153 538 L422 538 Z M196 104 L379 104 L379 498 L196 498 L196 104 Z M713 538 L755 538 L755 65 L488 65 L488 538 L530 538 L530 349 L713 349 L713 538 Z M713 103 L713 311 L530 311 L530 103 L713 103 Z " />
<glyph glyph-name="uni316F" unicode="&#x316f;" horiz-adv-x="910" d="M390 538 L390 64 L116 64 L116 538 L390 538 Z M159 104 L347 104 L347 498 L159 498 L159 104 Z M630 379 Q630 353 633 333 Q636 313 643 295.5 Q650 278 659.5 262 Q669 246 683 229 Q694 214 706 199.5 Q718 185 732 168.5 Q746 152 764 131.5 Q782 111 805 86 L775 56 Q728 108 697.5 144 Q667 180 648 204 Q625 233 617.5 250 Q610 267 609 273 L608 273 Q607 267 599.5 250 Q592 233 569 204 Q550 180 519.5 144 Q489 108 442 56 L411 86 Q434 111 452 131.5 Q470 152 484.5 168.5 Q499 185 511 199.5 Q523 214 534 229 Q547 246 557 262 Q567 278 573.5 295.5 Q580 313 583 333 Q586 353 586 379 L586 537 L630 537 L630 379 Z " />
<glyph glyph-name="uni3170" unicode="&#x3170;" horiz-adv-x="910" d="M770 67 L439 67 L602 569 L770 67 Z M705 106 L602 429 L502 106 L705 106 Z M410 538 L410 64 L145 64 L145 538 L410 538 Z M188 104 L367 104 L367 498 L188 498 L188 104 Z " />
<glyph glyph-name="uni3171" unicode="&#x3171;" horiz-adv-x="910" d="M604 88 Q604 68 594 48 Q584 28 564.5 12 Q545 -4 517.5 -14 Q490 -24 455 -24 Q420 -24 393 -14 Q366 -4 346.5 12 Q327 28 317 48 Q307 68 307 88 L307 114 Q307 134 317 154 Q327 174 346.5 190 Q366 206 393 216 Q420 226 455 226 Q490 226 517.5 216 Q545 206 564.5 190 Q584 174 594 154 Q604 134 604 114 L604 88 Z M558 115 Q558 147 528.5 167 Q499 187 455 187 Q412 187 382.5 167 Q353 147 353 115 L353 87 Q353 55 382.5 35 Q412 15 455 15 Q499 15 528.5 35 Q558 55 558 87 L558 115 Z M671 647 L671 302 L237 302 L237 647 L671 647 Z M280 342 L628 342 L628 607 L280 607 L280 342 Z " />
<glyph glyph-name="uni3172" unicode="&#x3172;" horiz-adv-x="910" d="M472 537 L758 537 L758 60 L715 60 L715 497 L472 497 L472 537 Z M384 538 L426 538 L426 65 L153 65 L153 538 L195 538 L195 349 L384 349 L384 538 Z M384 103 L384 311 L195 311 L195 103 L384 103 Z " />
<glyph glyph-name="uni3173" unicode="&#x3173;" horiz-adv-x="910" d="M379 538 L421 538 L421 65 L164 65 L164 538 L206 538 L206 349 L379 349 L379 538 Z M379 103 L379 311 L206 311 L206 103 L379 103 Z M496 65 L496 536 L735 536 L735 496 L539 496 L539 105 L746 105 L746 65 L496 65 Z " />
<glyph glyph-name="uni3174" unicode="&#x3174;" horiz-adv-x="910" d="M274 538 L316 538 L316 64 L107 64 L107 538 L149 538 L149 347 L274 347 L274 538 Z M274 102 L274 309 L149 309 L149 102 L274 102 Z M583 538 L808 538 L808 61 L765 61 L765 498 L583 498 L583 538 Z M507 382 Q507 339 514.5 302.5 Q522 266 545 231 Q562 205 586 171 Q610 137 649 86 L617 58 Q596 85 580.5 106 Q565 127 553 143.5 Q541 160 532 173.5 Q523 187 514 200 Q500 221 494.5 234.5 Q489 248 486 259 Q483 248 477.5 234.5 Q472 221 458 200 Q449 187 439.5 173 Q430 159 418 142.5 Q406 126 390.5 105 Q375 84 354 57 L321 84 Q360 135 385 170 Q410 205 427 231 Q450 266 456.5 298.5 Q463 331 463 374 L463 539 L507 539 L507 382 Z " />
<glyph glyph-name="uni3175" unicode="&#x3175;" horiz-adv-x="910" d="M276 538 L318 538 L318 64 L107 64 L107 538 L149 538 L149 347 L276 347 L276 538 Z M615 65 L615 536 L801 536 L801 496 L658 496 L658 105 L812 105 L812 65 L615 65 Z M498 182 Q481 211 474.5 225.5 Q468 240 467 248 Q465 240 459 225.5 Q453 211 436 182 Q421 156 403 127.5 Q385 99 357 57 L324 82 Q350 121 372 156.5 Q394 192 414 228 Q423 245 429 260 Q435 275 438.5 291 Q442 307 443.5 326 Q445 345 445 369 L445 539 L489 539 L489 369 Q489 345 490.5 326 Q492 307 495.5 291 Q499 275 505 260 Q511 245 520 228 Q540 192 562 156.5 Q584 121 610 82 L577 57 Q549 99 531 127.5 Q513 156 498 182 Z M276 102 L276 309 L149 309 L149 102 L276 102 Z " />
<glyph glyph-name="uni3176" unicode="&#x3176;" horiz-adv-x="910" d="M353 538 L395 538 L395 65 L129 65 L129 538 L171 538 L171 349 L353 349 L353 538 Z M353 103 L353 311 L171 311 L171 103 L353 103 Z M628 380 Q628 354 630.5 334 Q633 314 639 296 Q645 278 654.5 260.5 Q664 243 678 224 Q689 209 699.5 194.5 Q710 180 722 163.5 Q734 147 749.5 127.5 Q765 108 786 82 L756 56 Q734 83 718.5 102.5 Q703 122 690.5 138 Q678 154 668.5 167 Q659 180 649 193 Q629 221 619.5 239 Q610 257 608 266 L607 266 Q605 257 595.5 239 Q586 221 566 193 Q556 180 546.5 167 Q537 154 524.5 138.5 Q512 123 496.5 103.5 Q481 84 459 57 L427 82 Q448 108 463.5 127.5 Q479 147 492 163.5 Q505 180 515 194 Q525 208 536 223 Q550 242 559 258 Q568 274 573.5 290 Q579 306 581.5 325 Q584 344 584 370 L584 498 L451 498 L451 538 L761 538 L761 498 L628 498 L628 380 Z " />
<glyph glyph-name="uni3177" unicode="&#x3177;" horiz-adv-x="910" d="M382 538 L424 538 L424 67 L161 67 L161 538 L203 538 L203 349 L382 349 L382 538 Z M382 105 L382 311 L203 311 L203 105 L382 105 Z M493 536 L735 536 L735 497 L534 497 L534 319 L729 319 L729 280 L534 280 L534 103 L746 103 L746 64 L493 64 L493 536 Z " />
<glyph glyph-name="uni3178" unicode="&#x3178;" horiz-adv-x="910" d="M604 88 Q604 68 594 48 Q584 28 564.5 12 Q545 -4 517.5 -14 Q490 -24 455 -24 Q420 -24 393 -14 Q366 -4 346.5 12 Q327 28 317 48 Q307 68 307 88 L307 114 Q307 134 317 154 Q327 174 346.5 190 Q366 206 393 216 Q420 226 455 226 Q490 226 517.5 216 Q545 206 564.5 190 Q584 174 594 154 Q604 134 604 114 L604 88 Z M558 115 Q558 147 528.5 167 Q499 187 455 187 Q412 187 382.5 167 Q353 147 353 115 L353 87 Q353 55 382.5 35 Q412 15 455 15 Q499 15 528.5 35 Q558 55 558 87 L558 115 Z M633 662 L675 662 L675 306 L234 306 L234 662 L276 662 L276 538 L633 538 L633 662 Z M633 344 L633 500 L276 500 L276 344 L633 344 Z " />
<glyph glyph-name="uni3179" unicode="&#x3179;" horiz-adv-x="910" d="M604 88 Q604 68 594 48 Q584 28 564.5 12 Q545 -4 517.5 -14 Q490 -24 455 -24 Q420 -24 393 -14 Q366 -4 346.5 12 Q327 28 317 48 Q307 68 307 88 L307 114 Q307 134 317 154 Q327 174 346.5 190 Q366 206 393 216 Q420 226 455 226 Q490 226 517.5 216 Q545 206 564.5 190 Q584 174 594 154 Q604 134 604 114 L604 88 Z M558 115 Q558 147 528.5 167 Q499 187 455 187 Q412 187 382.5 167 Q353 147 353 115 L353 87 Q353 55 382.5 35 Q412 15 455 15 Q499 15 528.5 35 Q558 55 558 87 L558 115 Z M423 645 L423 294 L211 294 L211 645 L254 645 L254 511 L380 511 L380 645 L423 645 Z M380 333 L380 472 L254 472 L254 333 L380 333 Z M697 645 L697 294 L485 294 L485 645 L528 645 L528 511 L654 511 L654 645 L697 645 Z M654 333 L654 472 L528 472 L528 333 L654 333 Z " />
<glyph glyph-name="uni317A" unicode="&#x317a;" horiz-adv-x="910" d="M359 379 Q359 353 362 333 Q365 313 372 295.5 Q379 278 388.5 262 Q398 246 412 229 Q423 214 435 199.5 Q447 185 461 168.5 Q475 152 493 131.5 Q511 111 534 86 L504 56 Q457 108 426.5 144 Q396 180 377 204 Q354 233 346.5 250 Q339 267 338 273 L337 273 Q336 267 328.5 250 Q321 233 298 204 Q279 180 248.5 144 Q218 108 171 56 L140 86 Q163 111 181 131.5 Q199 152 213.5 168.5 Q228 185 240 199.5 Q252 214 263 229 Q276 246 286 262 Q296 278 302.5 295.5 Q309 313 312 333 Q315 353 315 379 L315 539 L359 539 L359 379 Z M479 535 L766 535 L766 62 L723 62 L723 495 L479 495 L479 535 Z " />
<glyph glyph-name="uni317B" unicode="&#x317b;" horiz-adv-x="910" d="M329 379 Q329 353 332.5 333 Q336 313 342.5 296 Q349 279 358.5 263 Q368 247 380 229 Q390 214 400.5 200 Q411 186 424.5 169.5 Q438 153 454.5 133 Q471 113 494 86 L464 56 Q419 110 390.5 145 Q362 180 345 204 Q324 233 316.5 250 Q309 267 308 273 L307 273 Q306 267 297.5 250.5 Q289 234 268 204 Q259 191 248 176.5 Q237 162 223.5 144.5 Q210 127 192 105.5 Q174 84 151 56 L120 86 Q143 114 159.5 134 Q176 154 188.5 169.5 Q201 185 211.5 199 Q222 213 233 229 Q246 247 255.5 263 Q265 279 271.5 296 Q278 313 281.5 333 Q285 353 285 379 L285 531 L329 531 L329 379 Z M569 106 L797 106 L797 66 L526 66 L526 535 L569 535 L569 106 Z " />
<glyph glyph-name="uni317C" unicode="&#x317c;" horiz-adv-x="910" d="M329 379 Q329 353 332.5 333 Q336 313 342.5 296 Q349 279 358.5 263 Q368 247 380 229 Q390 214 400.5 200 Q411 186 424.5 169.5 Q438 153 454.5 133 Q471 113 494 86 L464 56 Q419 110 390.5 145 Q362 180 345 204 Q324 233 316.5 250 Q309 267 308 273 L307 273 Q306 267 297.5 250.5 Q289 234 268 204 Q259 191 248 176.5 Q237 162 223.5 144.5 Q210 127 192 105.5 Q174 84 151 56 L120 86 Q143 114 159.5 134 Q176 154 188.5 169.5 Q201 185 211.5 199 Q222 213 233 229 Q246 247 255.5 263 Q265 279 271.5 296 Q278 313 281.5 333 Q285 353 285 379 L285 531 L329 531 L329 379 Z M528 64 L528 533 L784 533 L784 493 L571 493 L571 104 L795 104 L795 64 L528 64 Z " />
<glyph glyph-name="uni317D" unicode="&#x317d;" horiz-adv-x="910" d="M329 379 Q329 353 332.5 333 Q336 313 342.5 296 Q349 279 358.5 263 Q368 247 380 229 Q390 214 400.5 200 Q411 186 424.5 169.5 Q438 153 454.5 133 Q471 113 494 86 L464 56 Q419 110 390.5 145 Q362 180 345 204 Q324 233 316.5 250 Q309 267 308 273 L307 273 Q306 267 297.5 250.5 Q289 234 268 204 Q259 191 248 176.5 Q237 162 223.5 144.5 Q210 127 192 105.5 Q174 84 151 56 L120 86 Q143 114 159.5 134 Q176 154 188.5 169.5 Q201 185 211.5 199 Q222 213 233 229 Q246 247 255.5 263 Q265 279 271.5 296 Q278 313 281.5 333 Q285 353 285 379 L285 531 L329 531 L329 379 Z M743 538 L785 538 L785 62 L517 62 L517 538 L559 538 L559 354 L743 354 L743 538 Z M743 100 L743 316 L559 316 L559 100 L743 100 Z " />
</font>
</svg>
